BASIC
(212.0){1},
{1}4,
{1}3,
{1}2,
{1}1,
{1}8,
{1}7,
{1}6,
{1}5,,,
{1}3h[8:7]/4h[8:7],,
{1}5h[8:7]/6h[8:7],,
{1}B4/B5,
{1}B3/B6,
{1}B2/B7,
{1}B1/B8,
{1}Chf[1:1],,
{4}1x,1,1,,
{4}1,1,1,,
{4}2,2,2,,
{1}2h[2:1],
{4}3,3,3,,
{4}4,4,4,,
{4}5,5,5,,
{1}4b/5b,
{4}5x,5,5,,
{4}5,5,5,,
{4}6,6,6,,
{1}6h[2:1],
{4}7,7,7,,
{4}8,8,8,,
{1}1h[1:1]/8h[1:1],,
{1}1-4[4:3]/8-5[4:3],,
{1}4,
{1}4,
{1}3,
{1}3/4,
{1}5,
{1}5,
{1}6,
{1}5/6,
{1}4h[1:1]/5h[1:1],,
{1}3h[1:1]/6h[1:1],,
{1}2h[1:1]/7h[1:1],,
{1}2hx[8:7]/8hx[8:7],,
{1}1hx[8:7]/7hx[8:7],,
{1}1b/8b,
{1}1-5[4:3],,
{2}6,6,
{2}7,7,
{1}8-4[4:3],,
{2}3,3,
{1}1/2,
{1}B3,
{1}B4,
{1}B5,
{1}B6,
{1}B4/B5,
{1}B3/B6,
{1}B2/B7,
{1}B1/B8,
{1}Chf[1:1],,
{1}1h[2:3]/8h[2:3],,
{4}1,1,2,2,
{1}1h[2:1]/2h[2:1],
{4}2,2,2,,
{4}3,3,3,,
{4}4,4,5,5,
{4}4,5,3b/6b,,
{4}4,4,3/5,,
{4}5,5,4/6,,
{4}6,6,7,7,
{1}7h[2:1]/8h[2:1],
{4}1,1,1,,
{4}8,8,8,,
{1}1h[2:1]/8h[2:1],
{4}2/7,2/7,2b/7b,,
{1}1-5[4:3],
{2},8,
{1}8-4[4:3],
{2},1,
{2}2,2,
{2}3,3,
{4}4,4,4,,
{4}5,5,5,,
{4}5,5,6,6,
{4}5,5,4/6,,
{4}4,4,3,3,
{4}4,4,3/5,,
{4}4,4,5,5,
{4}3,3,6,6,
{4}2,2,7,7,
{4}1,1,8,8,
{4},2hx[4:15]/7hx[4:15],,,{1},,,,
E
ADVANCED
(212.0){1},
{1}6h[1:1],
{1}5h[1:1],
{1}4h[1:1],
{1}3h[1:1],
{1}4h[1:1],
{1}5h[1:1],
{1}6h[1:1],
{1}Ch[8:17],,,
{8}3x/4x,,,3x/4x,,,3hx[2:1]/4hx[2:1],,
{2},3x/4x,
{8}5x/6x,,,5x/6x,,,5hx[2:1]/6hx[2:1],,
{2},5x/6x,
{4}3,4,3/5,,
{4}6,5,4/6,,
{2}3x/5x,4x/6x,
{1}5x-8[2:1],
{1}1hx[1:1],
{4}8x,1x/8x,2b/7b,,
{4}3,3,3/4,,
{4}6,6,5/6,,
{4}4,4,3,3,
{4}2/4,2/4,2/4,,
{8}3x,3x,,,5x,5x,,,
{8}4x,4x,,,6x,6x,,,
{4}5/7,5/7,6,6,
{4}4,4,3/5,,
{4}1,1,2,2,
{4}3,3,3/4,,
{4}5,5,6,6,
{4}7,7,7/8,,
{1}5h[2:1]/6h[2:1],
{1}3h[2:1]/4h[2:1],
{1}4-8[4:3]/5-1[4:3],
{2},2x/7x,
{1}3V14[4:5]/6V85[4:5],,
{1}E5,
{1}B4,
{1}B3,
{1}E3,
{1}C1,
{1}E7,
{1}E8,
{1}E1/E2,
{2}B5/E6,B6,
{1}B7,
{2}B4/E4,B3,
{1}B2,
{2}B4/B5,B3/B6,
{1}B2/B7,
{1}Ch[8:7],,
{1}Ch[8:7],,
{1}C1f/B2/B7,
{1}8x-4[4:3],
{2},3,
{1}2-6[4:3],
{2},7,
{1}8x-4[4:3],
{2},3/5,
{4}6,6,4/5,4/5,
{4}3x,3x,2b/4b,,
{1}3-8[4:3],
{2},7,
{1}6-2[4:3],
{2},1,
{1}8-4[4:3],
{2},3/5,
{1}4-1[4:3]*-7[4:3],
{2},8x,
{1}2h[2:1]/7h[2:1],
{4}3x/4x,3x/4x,5x/6x,6x/5xs1[1:1],{1},
{2},2b/7b,
{4}6,5,4,3,
{4}2/4,2/4,1/5,,
{8}2x,2x,,,4x,4x,,,
{8}6x,6x,,,8x,8x,,,
{4}1,1,2/8,2/8,
{4}1/7,1/7,2b/6b,,
{4}1,2,3,4,
{4}6,7,2/8,,
{4}8,7,6,5,
{4}3,2,1/7,,
{2}5h[4:1]/7h[4:1],5/7,
{2}2h[4:1]/4h[4:1],2/4,
{4}1/2,1/2,3/4,3/4,
{4}5/6,5/6,7/8,7/8,
{1}1x-5[4:3],
{4},,6,6-2[1:1],{1},
{4},,1/8,1^4[8:7]/8^5[8:7],{1},
{4},,3x/6x,3V15[8:9]/6V84[8:9],{1},
{2},3x/6x,
{8}2x,2,2,,3/5,,3/5,,
{8}6,6,6,,5x/7x,,,,
{8}7,7,7,,2/8,,2/8,,
{8}3,3,3,,2b/4b,,,,
{1}5x/4x>5[4:5],,
{8}4x,4x,,3x/5x,3x/5x,,4x/6x,4x/6x,
{8},2x/7x,2x/7x,,1x/8x,1x/8x,1x/8x,,
{4},C1f,,,{1},,,
{1}3h[1:2]/6h[1:2],,,
{8}Ch[8:7],,,,,,,,
E
EXPERT
(212)
{4}6,5,4,{1}3/6h[1:1],3^6[2:1],4h[1:1],{8}3,,,4,,,5,,
{1}5h[1:1],{4}3,4,5,6,{2}6h[2:1],5,3h[2:1],4-8[4:5],{1},4w8[4:1],
{8}35,35,,47,47,,15,1<2[2:1]/5,{1},
{8}46,46,,25,25,,48,4/8>7[2:1],{1},
{8}3b/8b,,5,5,3,4,3,25,,5,4,4,6,5,6,5,47,47,,,25,25,,,
{16}4x/6x,,,3x/5x,,,4x/7x,,,2x/5x,,,1x/8x,,2x>8[2:1]/7x<1[2:1],,
{1},{4}1x/2x,34,56,7-3[8:1]/8-4[8:1],
,1b/6b,{8}3,4,3,2-5[8:1]/5,,7,7h[4:1],,{16}5x,,,1x/8x,,,2x/4x,,
{2}2-5[8:1]/4-7[8:1],{8}8,1,2,3,{2}4h[4:1]/7h[4:1],2h[4:1]/4h[4:1],
{8}4/7-5[8:1],4,,,2-4[8:1]/6,6,,,1/7-3[8:1],1,,,2-6[8:1]/8,8,,,
{4}7h[4:1],5h[4:1],4h[4:1],2h[4:1],{8}6,6,1,1,{16}7,8,7,8,7b,,,,
{4}45,B3f/B6f/Cf,1x/8x,{8}7,7-4[8:1],,2,2h[4:1],,{16}4x,,,1x/8x,,,5x/7x,,
{2}5-2[8:1]/7-4[8:1],{8}1,8,7,6,{2}2h[4:1]/5h[4:1],5h[4:1]/7h[4:1],
{12}25,,,2,1,2,1-5[8:1],,,3,,,47,,,7,8,7,8-4[8:1],,,6,,,
{8}25,,8,57,,1,24,,{16}7hx[16:3],,,6h[16:3],,,5,,1hx[16:3],,,2h[16:3],,,3,,
{0.5}4qq1[4:5]/8qq5[4:5],
{4}5/6h[1:2],,4,4,5,,7,7,{2}7s3[4:5],E8,E6,C,
{4}3h[1:2]/4,,5,5,4,,2,2,{2}2z6[4:5],E2,E4,C,
{8}5h[8:3]/6h[1:1],,,,,7,7,,{4}8h[4:1],E8,E2/E7,E6,
{8}3h[1:1]/4h[8:3],,,,,2,2,,{4}1h[4:1],E2,E3/E7,E4,
{8}5h[8:3]/6h[1:1],,,,,7,7,,{4}8h[4:1],B1/B8,C,B4/B5/E4/E6,
{8}1x/2x,1x/2x,,B1/B8/E2/E8,,B4/B5/E4/E6,,E3/E7/Ch[8:5],{1},
{8}7x/8x,7x/8x,,B2/B3/E2/E4,,B6/B7/E6/E8,,E1/E5/Chf[8:5],{1},
{8}8,8,1,1,{4}6,4b/8b,
{8}2<6[4:1]/6,,5,5,,,2<6[4:1],,4,4,,,2h[4:1],,1,,
{8}2/7>3[4:1],,4,4,,,7>3[4:1],,5,5,,,7h[4:1],,8,,
{4}1h[2:1]/6h[2:1],,,45,57,45,24,45,
6x/7x,45,23,18,{8}6h[8:1],5h[8:1],4h[8:1],3h[8:1],2x,,1b/8b,,
2>6[4:1]/7,,1,1,,,2>6[4:1],,1,1,,,2h[4:1],,1,,
3/7<3[4:1],,8,8,,,7<3[4:1],,8,8,,,7h[4:1],,8,,]
{2}B3/B6/Chf[2:3],E8,E2,E1,
{8}8,8,1,1,6,6,3,3,27,27,27,27,{16}1,8,1,8,1>5[2:1],8,1,8,{1},
{8}4x/6x,5,2x/4x,3,4x/7x,6,1xpp4[4:5]/5xpp8[4:5],,
{2},,,{16}24,,,18,,,57,,
{2}5-2[8:1]/7-4[8:1],{8}1,8,7,6,{4}2h[4:1]/5,3,4/7h[4:1],6,
{8}2-5[8:1]/8,28,,,1/7-4[8:1],17,,,1/2-6[8:1],12,,,7-3[8:1]/8,78,,,
{4}1h[8:1]/2h[8:1],3h[8:1]/4h[8:1],5h[8:1]/6h[8:1],7h[8:1]/8h[8:1],
{8}3,3,8,8,{16}2,1,2,1,2b,,,,
{4}45,B3f/B6f/Cf,1x/8x,{8}2,2-5[8:1],,7,7h[4:1],,{16}5,,,18,,,24,,
{2}2-5[8:1]/4-7[8:1],{8}8,1,2,3,{4}4/7h[4:1],6,2h[4:1]/5,3,
{12}4x/7x,,,6,5,6,5-1[8:1],,,8b,,,
2x/5x,,,3,4,3,{16}4hx[8:1],,,3hx[8:1]/5hx[8:1],,,2x/6x,,
{8}1x/7x,,12,38,,78,16,,{16}2hx[16:3],,,3h[16:3],,,4,,8hx[16:3],,,7h[16:3],,,6,,
{4}1bw5[4:5]/5b,,,,,,,18,
{8}25,,6,5,47,,3,4,25,,8,1,{16}2x/7x,,,3x/6x,,,4x/5hx[8:3],,
{4},Cf,,18,{8}4,4,6,6,3,3,5,,
{4}2-6[8:1],1,8-4[8:1],2,3h[4:1],4,{16}1x/2x,,,4x/5x,,,7x/8x,,
6x,5,6,5,6,,3x,4,3,4,3,,{8}2b-6[8:1]/7b,,
8-4[8:1],8,3-1[8:1],3,7,,6b/8b,,
{16}3x,4,3,4,3,,6x,5,6,5,6,,{8}2b/7b-3[8:1],,
1-5[8:1],1,6-8[8:1],6,2,,1b/3b,,
{16}1x/8x,,,24,,,57,,,25,,,47,,,15,,,48,,,16,,,38,,,45,,,18,,
6x,5,6,5,6,,3x,4,3,4,3,,8x,1,8,1,8,,4x,5,4,5,4,,E5,E6,E7,E8,E1,E2,E3,E4,
{4},B2/B3/B6/B7/Ch[4:13],,,,{1},,,
{8}5,,4,4,5,5,,4,,4,,5,4,5,,,
4,,5,5,4,4,,5,,5,,4,5,3b,
{1},,,,,,,,,,,,,,,
E
MASTER
(212)
{4},4,3,2,
{8}1-5[4:3],,,,,,8,8,{1}8,
{8}7-3[4:3],,,,,,1,1,1h[8:3],,,7h[8:3],,,3h[4:1],,
{8}4^7[4:3],,,,,,1,2,{4}3,8,7,6,
{2}45,16,37,2/5p4[4:7],{1},{8},Ch[8:3],{4},,,
{8}26,26,,37,37,,15,15,,78,6,5,34,2,1,8,
37,37,,26,26,,48,48,,12,3,4,56,7,8,1,
{16}2x/6x,,5,4,5,,3,4,3,,6,5,6,,
{4}4x/7x,{16}3,4,3,,7,8,7,,2,1,2,,8,,
4x/8x,,4x/8x,,8,7,6,5,4x/8x,,4x/8x,,1,2,3,4,
1x/5x,,,4x/8x,,,2x/5x,,,3x/7x,,,{8}1xp3[4:3]/5xp7[4:3],1x/5x,
{1},{16}2x,,6,5,6x,,3,4,3x,,6,5,7x,,3,4,
{4}1-5[8:1],1b/7,{8}6,3,2,8w4[8:1],,8,,2,
{16}12,,,34,,,56,,{4}7h[8:3]/8^3[32:3],
{16},,4,5,6,7,8,1,2,3,4,,{4}8-4[8:1],2-6[8:1],5-1[8:1],3,
{8}34,34,5,5,46,46,3,3,26,26,7,7,38,38,2,2,
16,2,38,7,26,3,47,6,57,57,26,26,48,48,{16}48,7,6,5,
{4}3/4-8[8:1],2/4b,{8}3,2,1,1w5[8:1],,1,,7,
{16}78,,,56,,,34,,{4}1^6[32:3]/2h[8:3],
{16},,5,4,3,2,1,8,7,6,5,,{4}1-5[8:1],7-3[8:1],4-8[8:1],6,
{12}16,,,4,4,4,35,,,6,6,6,57,,,2,2,2,{16}1x/3x,,,6x/8x,,,2x/5x,,
{16}3b,4,3,4,3,,6b,5,6,5,6,,1b,8,1,8,
1h[16:3],,,6h[16:3],,,4h[8:1],,5h[16:3],,,2h[16:3],,,8h[8:1],,
1,2,3,4,5,6,7,8,1,2,3,4,5,6,7,8,
1h[4:1],,6,5,4,,2,,{6}8,6,4,
{2}2^5[2:1],C,7<3[2:1],C,{1}1qq6[4:5]/2pp5[4:5],,
{2}7^4[2:1],C,2>6[2:1],C,{1}7qq4[4:5]/8pp3[4:5],,
{8}6h[8:3],,5,5,,6,5,7,{4}E1/E8,E2/E7,E3/E6,E4/E5,
{8}3h[8:3],,4,4,,3,4,2,E1/E2,,{16}B3,B4,E5,,{4}B6/E7,B2/E2,
{8}7h[8:3],,5,5,,6,5,7,E1/E2/E8,,E4/E5/E6,,{12}3,4,2,6,5,7,
{8}38,3-7[8:1]/8,,3/8-4[8:1],,2^7[4:1]/8,,27,
,6,{16}4,5,4,,{8}3,8,27,,
16,1/6-2[8:1],,1-5[8:1]/6,,1/7^2[4:1],,27,
,3,{16}5,4,5,,3,4,3,,{4}25,
{16}47,,6,5,6,,3,4,3,,6,5,7,,3,4,
{8}2qq5[1:1],,,B8,,,E6,,,E7,,,{16}34,,,25,,,16,,
{8}7pp4[1:1],,,B1,,,E4,,,E3,,,36,,45,,
2h[8:3]/7h[8:3],,,,,45,45,,{4}3h[4:1]/8,4,1/6h[4:1],5,
78,34,12,56,{8}46,35,24,13,24,35,46,57,
{8}8h[8:3],,6,6h[8:3],,4,4h[8:3],,2,2h[8:3],,8,{16}8h[8:3],,,1,,,2,,
{8}3h[8:3],,4,5h[8:3],,6,7h[8:3],,8,1h[8:3],,2,3,,45,,
{16}36,,,,4,5,4,5,36,,,,2,1,2,1,38,,,,7,8,7,8,{8}16,,34,,
1-5[8:1],28,1b/7,,8-4[8:1],17,2/8b,,
{16}1,,E7,B6,B5,,E3,B3,B4,,7,,1,8,1,,
1x/8x,7,6,5,4,3,2,1,48,5,6,7,8,1,2,3,
{8}4x/8x,48,2x/6x,26,3x/7x,37,1xv4[4:5]/5xv8[4:5],15,
{2},,,{16}4x/5x,,,3x/6x,,,2x/7x,,
{4}1v4[8:1]/8v5[8:1],1b/8b,{16}1,2,3,4,5,6,7,8,
{4}1-3[8:1]*-4[8:1],1-6[8:1]*-7[8:1],1-5[8:1],1,
{16}46,,46,,5,4,5,,35,,35,,4,5,4,,57,,57,,6,5,6,,24,,24,,3,4,3,,
15,2,3,4,15,6,7,8,15,2,3,4,15,6,7,8,
{8}15,15,26,26,37,37,{24}4,5,6,7,8,1,
{4}2/5-1[8:1],5b/7,{8}6,7,8,1-4[8:1]/2-6[8:1],,12,,8,{16}57,,,34,,,28,,
{4}7-3[8:1]/8-5[8:1],78,{16}8,7,6,5,4,3,2,1,
{4}8-5[8:1]*-6[8:1],8-2[8:1]*-3[8:1],8-4[8:1],8,
{12}3/5h[4:1],,,4,4,4,3h[4:1]/5,,,6,6,6,
4/7h[4:1],,,2,2,2,{16}13,,,46,,,17,,
{24}1x/8x,2,3,4,5,6,7,8,1,2x/7x,6,5,4,3,2,1,8,7,3x/6x,4,5,6,7,8,
{16}1x/5x,,,6x/8x,,,5x/7x,,4x/8x,,,1x/3x,,,2x/4x,,
{4}1hx[8:3]/7x-3[8:9],,,4h[8:3],,,{16}1h[16:3],,,2h[16:3],,,3,,
{4}2-6[8:9]/4h[8:3],,,7h[8:3],,,{16}8h[16:3],,,7h[16:3],,,6,,
{4}5-1[8:1]/7,8h[2:1],,2,{16}2,1,2,1,3,8,3,8,4,7,4,7,{8}5h[8:1],6,
7h[4:1],,5,3h[4:1],,4,5,4-8[8:1]/6,,7h[4:1],,,{16}1b/2b,,,3b/5b,,,6b/8b,,
1x,2,3,4,5,,1x,2,3,4,5,,1x,2,3,4,8b,7,6,5,7b,6,5,4,{24}6b,5,4,3,2,1,8,7,6,5,4,3,
{16}8x,7,6,5,4,,8x,7,6,5,4,,8x,7,6,5,1b,2,3,4,2b,3,4,5,{24}3b,4,5,6,7,8,1-5[16:1],2,3,4,5,6,
{16}7x-4[16:1],,,2x-5[16:1],,,8x-4[16:1],,,3x-6[16:1],,,7x-4[16:1],,,
1x-5[16:1],,,8x-4[16:1],,,2x-5[16:1],,,6x-3[16:1],,,4x-1[16:1],,,8x,,
{24}8b,7,6,5,4,3,,,,{24}1b,2,3,4,5,6,,,,
{24}5b/8b,47,36,25,14,38,,,,{24}1b/4b,25,36,47,58,16,,,,
{32}8b,7,6,5,4,3,2,1,8,7,6,5,4,3,2,1,{4}4v1[8:1]/8v5[8:1],
{16}4bp2[4:11]/8bp6[4:11],Cf,,,,,,,,,{8},,,{1},,,
{8}2,,5,3,6,4,,7,,3,,6,4,5,,,
B8,,B4,B6,B2,E8,,E1,,E7,,B3,E6,C,
{1},,,,,,,,,,,,
E
Re:MASTER
- {24}1x/8x,2,3,4,5,6,7,8,1,2x/7x,6,5,4,3,2,1,8,7,3x/6x,4,5,6,7,8,の箇所を修正しました -- takerun3367 (2026-01-04 05:46:08)
- {0.5}を{1}に修正しました。 -- けもがみ (2026-01-09 20:06:06)
- MASTER譜面の配置ミス、SLIDEの速度の修正を行いました。 -- けもがみ (2026-01-31 22:38:11)
最終更新:2026年04月11日 18:37