BASIC
ADVANCED
EXPERT
(222)
{1}4h[2:3],5h[2:3],3h[4:5],{4}6h[2:1],,,1b,
{8}8h[4:1],,1,1,,6,6,5,7h[4:1],,1,1,,3,3,4,
2h[4:1],,8,8,,6,6,5-2[4:1]*-8[4:1],{1},
{8}1h[4:1],,7,7,4,5,3,3,8h[4:1],,2,2,5,4,6,6,
1^4[8:1],,5,5,,7h[4:1],,5,5,,8,1,,1^4[4:1]/8^5[4:1],,,{2},
{4}45,B1/B8,35,B7/E8,46,B2/E2,45,E4/E6,45,36,27,1s5[2:1]/8,,,,,
{4}6h[2:1],,5,,3h[1:1],5,5,5,6h[2:1],,5,,2h[2:1],,4,,
{8}7,7,5,5,6,4h[4:1],,5,5,3,4,2h[4:1],,3h[4:1],,4,
4,5,3,3,4,1h[4:1],,8,8,1,1,7-4[4:1],,,,,
{4}3h[2:1],,4,,6h[1:1],4,4,4,3h[1:1],,4,5,6h[2:1],,5,,
{12}7h[6:1],,5,5,,,2h[6:1],,4,4,,,6h[6:1],,8,8,,,3h[6:1],,1,1,,,
{2}8-5[4:1],1-4[4:1],8b,,
{8}4h[4:1]/6h[4:1],,,3h[4:1]/5h[4:1],,,46,,37,,8,8,1,1,,26,
3h[4:1]/5h[4:1],,,4h[4:1]/6h[4:1],,,35,,26,,1,1,8,8,,37,
4h[4:1]/6h[4:1],,,3h[4:1]/5h[4:1],,,,46,4h[4:1]/6h[4:1],,,1x/8x,,2x/7x,2x/7x,,
3h[4:1]/5h[4:1],,,4h[4:1]/6h[4:1],,,3/5p4[2:1],,{1},
{16}3,4,3,4,3,4,3,4,3,4,3,4,3,,,,6,5,6,5,6,5,6,5,6,5,6,5,6,,,,
7,8,7,8,7,8,7,8,7,8,7,8,7,,,,2,1,2,1,2,1,2,1,2,1,2,1,2,,,,
{2}3-6[4:1],7-2[4:1],3-6[4:1],7-2[4:1],
{4}3h[4:1],5,6h[4:1],4,25,47,25,47,
{2}2h[2:1]/6,4h[2:1],5h[2:1],7h[2:1],{4}2h[2:1],,5,6,4qq5[2:1],,,,
{2}6h[2:1],8h[2:1],1h[2:1],3h[2:1],{1}5h[1:1],2b,
{2}8<2[8:11],1,1,1,1>7[8:11],8,8,8,8<2[8:11],1,1,1,1>7[8:11],8,8,8,
{4}E7,E6,E5,E4,{8}2,2,5,5,3,3,4,,{4}E3,E4,E5,E6,{8}7,7,4,4,6,6,5,,
5hx[4:1]/6hx[4:1],,,4hx[4:1]/7hx[4:1],,,3x/8x,3x/8hx[4:1],,5,,4,4,4,3,,
3hx[4:1]/4hx[4:1],,,2hx[4:1]/5hx[4:1],,,1x/6x,1hx[4:1]/6x,,4,,5,5,4,6,,
{1}7V53[2:1],2V46[2:1],Cf,
{8}78,,35,4^1[8:1]/6,,5x,5x,,8,,35,4^1[8:1]/6,,5x,5x,,
{2}8-4[8:1],1-5[8:1],{8}7,,18,18,2x/7x,,,,
12,,46,3/5^8[8:1],,4x,4x,,1,,46,3/5^8[8:1],,4x,4x,,
{2}1-5[8:1],8-4[8:1],{8}1,1,{4}8,45,2b/7b,
8h[2:1],6,1h[2:1],3,6h[2:1],8,3h[4:1],1<5[2:1],
,,,{8}3,3,{4}4,25,{12}6,5,6,5,,,
{4}3h[2:1],1,6h[2:1],8,1h[2:1],3,8h[4:1],4-1[4:1],
,,{8},6,6,5,7,1,8-4[4:1],,{2},
{8}3,,25,,1,1,8,,{4}5b/7b,4b/5b,2b/4b,1b/8b,
{8}6,,47,47,,25,25,,{16}1,8,1,8,1,8,1,,{8},27,27,,
{2}6h[1:1],E5,3h[1:1],B4/B5,6h[1:1],B4/B5/E5,3h[1:1],E1,
{8}4h[4:1]/7h[4:1],,,3h[4:1]/8h[4:1],,,4,4,5,3,4,2,8x,8x,1x/8x,,
2h[4:1]/5h[4:1],,,1h[4:1]/6h[4:1],,,7h[4:1]/8h[4:1],,,6,6,5,7,4,5,3,
3h[4:1],,6,6pp3[4:3],{1},{4}2,2,{8}6h[4:1],,4,4h[4:1],,8,8h[4:1],,
{4}1,4x/5x,3x/6x,2x/7x,1x/8x,67,45,23,18,67,45,23,
{12}1x/8x,1x/8x,1x/8x,1x/8x,,,{4}45,27,18,67,45,23,
{12}18,,,3,4,3,4,,,6,5,6,5,,,4,5,4,5,4,5,4,5,4,
{6}5,24,18,57,45,24,{2}18,E4/E6,
{8}3,3,24,2/4-8[8:1],,3,3,,1,1,8,2-5[8:1],,7,7,,
6,6,57,5-1[8:1]/7,,6,6,,{1}7-3[4:1],
{8}3,3,4,2,,15,15,,6,6,5,7,,48,48,,3,3,6,6,1,1,8,8,4,4,5,,36,,27,,
{4}1-5[8:1],8-6[8:1],2-4[8:1],1,8-4[8:1],1-3[8:1],7-5[8:1],8,{8}2,2,7,7,
{16}1,8,1,8,1,8,1,8,2,7,2,7,2,7,2,7,3,6,3,6,3,6,3,6,4,5,4,5,4,5,4,5,
4x,3x,2x,1x,8x,7x,6x,5x,{2}4hx[2:1],Cf,,7b,
{1},,,
E
MASTER
(222)
{2}3h[1:1]/5,E5,7h[1:1],C,1s5[2:1],,{4}6h[2:1],,3,45,
{16}2b/7b,,6,5,6,,47,,{8}3,8,1,6,{16}25,,3,4,3,,25,,{8}6,1,8,3,
{16}47,,6,5,6,,47,,{8}3,8,1,6,{16}2,4,2,,7,5,7,,{2}16,
{8}3-8[8:1],3,7-4[8:1],7,3,,B3/B4/E3,,6-1[8:1],6,2-5[8:1],2,6,,B5/B6/E7,,
3^8[8:1],3,7^4[8:1],7,3,3,8,8,1,1,6,6,{16}2,8,2,8,2,8,2,8,
{32}2,3,4,5,6,7,8,1,2,3,4,5,6,7,8,1,
{8}2b,,34,,5-7[8:1],5,1,2,8-4[8:1],8,3,2,5-7[8:1],5,1,,
48,4,47,4,46,4,45,,{16}B4,B5,B3,B6,E3,E7,E2,E8,{2}E1/C,
{2}56,B1/B2/E1/E3,{4}3,4,B7/B8/E1/E7,,{2}56,B1/B2/E1/E3,45,B3/B6/E3/E7,
{8}2-4[8:1],1,2,7-5[8:1],8,7,,2,2q6[8:1]/5,6,7,8h[4:1],,1,,27,
6-8[8:1],5,6,3-1[8:1],4,3,,7,17,6,5,34,,27,,,
{2}56,B1/B2/E1/E3,{4}3,4,B7/B8/E1/E7,,{2}56,B1/B2/E1/E3,45,18,
{12}2b,4,3,7,5,6,2,4,2,7,5,7,3,4,2,6,5,7,3,1,3,6,8,6,
{2}1w5[8:1],8w4[8:1],B1/B2/B6/B7/B8/Cf/E1/E2/E7/E8,,
{8}2h[4:1]/4,,1,3h[4:1]/8,,4,2h[4:1]/5,,
1,,{16}8,7,6,5,2,3,4,5,8,,,,
{8}5/7h[4:1],,8,1/6h[4:1],,5,4/7h[4:1],,
8,,{16}1,2,3,4,7,6,5,4,{4}1,
{8}2-5[8:1]/8,,5,6-1[8:1],,2,3,4-8[8:1],,5,6,17,,28,,6,
57,,3,24,,5,4q5[4:3],5p4[8:5],{1},
{16}3,4,3,4,2,5,2,5,1,6,1,6,8,7,8,7,
5,6,5,6,4,7,4,7,3,8,3,8,2,1,2,1,
3,4,3,4,2,5,2,5,1,6,1,6,8,7,8,7,
{24}1b,2,3,4,5,6,7,8,1,6b,5,4,3,2,1,8,7,6,{4}5,
{8}3h[8:3],,4,4-6[8:1],,2,,1,1/7h[4:1],,5,5-2[8:1],,6-1[8:1],,1,
,2,4,3,6,5,7,1V35[4:1],,5,,7,7,5,6,4,
{4}5h[2:1],E6/E7,4h[2:1],E3/E4,6h[2:1],E7/E8,3h[2:1],E2/E3,
8h[2:1],1,2,{8}3,4,2,,36,,{12}4,5,4,5,,,
{4}6h[2:1],B7,8h[2:1],B1,2h[2:1],B3,4h[2:1],B5,{1}Cf,2b,
{2}5>7[4:5]/7h[2:1],,6,5,2h[2:1]/4<2[4:5],,3,4,
5>7[4:5]/7h[2:1],,6,5,2h[2:1]/4<2[4:5],,3,4,
{8}5h[4:1]/6h[4:1],,,4h[4:1]/5h[4:1],,,34,,E2,E5,E3,E6,E4,E7,C,,
5h[4:1]/6h[4:1],,,4h[4:1]/5h[4:1],,,34,,E2,E5,E3,E6,E4,E7,C,,
18,,36,36,,7,5,6^1[4:1],,1q6[4:1],,4,,3,38,,
45,,27,27,,3,4,2p5[4:1],,5^2[4:1],,8,,6,16,,
{12}8,2,7,3,6,4,E6,E5,E8,E3,,,1,7,2,6,3,5,E4,E5,E2,E7,,,{1}B2/B7/Chf[2:1],
{8}17,8>4[8:1],2,8,,{24}7,8,1,2,3,4,5,,,
{8}8,1<5[8:1],7,1,,{24}2,1,8,7,6,5,4,,,
{4}1-4[8:1]*-6[8:1],1,5-2[8:1]*-8[8:1],5,{8}17,,45,36,B3f/B7f/Cf,,1b,,
28,1<5[8:1],7,1,,{24}2,1,8,7,6,5,4,,,
{8}1,8>4[8:1],2,8,,{24}7,8,1,2,3,4,5,,,
{16}8,,3,4,2,,6,5,7,,1,8,1,8,1,8,1,2,3,4,7,6,5,4,2,3,4,5,6,7,8,1,
{4}2/7-4[8:1],8,2-5[8:1]/6,1,3/6-1[8:1],5,3-8[8:1]/7,4<3[2:1],
{4}Cf,,,{8}2,2,{4}8h[12:5],4h[12:2],{12}37,26,15,48,,,
{4}5/6-3[8:1],1,2-7[8:1]/8,5,6^3[8:1]/8,1,2^7[8:1]/7,4>5[2:1],
{4}Cf,,{8}3,2,1,8h[8:5],,1,1h[4:1],,{24},27,36,45,,,2b/7b,,,,,,
{8}5-7[8:1],5,3,,2,2,35,,{16}6,5,6,5,6,,3,4,3,4,3,,25,,,,
{8}4-2[8:1],4,6,,7,7,46,,{16}3,4,3,,6,5,6,,{4}3h[4:1],8,
{2}4/7>3[2:1],B6,2>6[2:1]/7,B2,4/7p2[2:1],C,1h[4:1]/8h[4:1],{16}18,,7,2,6,3,5,4,
{8}5h[8:3],,6,6h[4:1],,,B7/E7,B3/E3,B5/E6,B2/E2,B8/E8,B4/E4,,6,6,,
3-8[8:1],3,5,6-1[8:1],6,4,3-8[8:1],3,5,6<3[8:3]*q3[8:3],6,{4},,
{8},34,,25,,46,46,,25,,34,{16},5,5,,{8},27,{16}1,8,1,8,
1,,,,56,,,4,{8}4,35,2,1s5[2:1],,8b,{4},,,
5b/6b,1b/8b,3b/4b,1b/8b,4b/5b,6b/7b,1b/8b,2b/3b,
{12}4b,4b,5b,5b,,,{8}2b/7b,3b/6b,4b/5b,,{16}8b,1b,8b,1b,8b,,,2b/7b,{8}2b/7b,3b/6b,4b/5b,,
{12}2b/7b,,,1b/2b,1b/2b,1b/2b,1b/2b,,,7b/8b,7b/8b,7b/8b,
7b/8b,,,2b/4b,2b/4b,2b/4b,2b/4b,,,5b/7b,5b/7b,5b/7b,
{6}5b/7b,4b/6b,3b/5b,6b/7b,2b/3b,1b/8b,{1}E5,
{16}35,,6,5,6,5,6,,78,1,2,3,45,6,7,8,12,,3,4,3,4,3,,12,8,7,6,45,3,2,1,
78,,6,5,6,5,6,,3,4,3,4,3,,12,,{32}7,6,5,4,3,2,1,8,7,6,5,4,3,2,1,8,{2}7b,
{8}1/2-5[8:1],,2,8-4[8:1],,18,,2,{4}2V86[4:1],6V42[4:1],2,6,
{8}7/8-4[8:1],,5,5-1[8:1],,3h[4:1],,2>7[4:1],{2}2,18,
{4}24,18,57,45,23,18,67,45,
{16}3,4,3,4,2,5,2,5,4,7,4,7,5,6,5,6,4,5,4,5,3,4,3,4,1,8,1,8,2,7,2,7,
{24}2b,3,4,5,6,7,8,1,2,3,4,5,1b,8,7,6,5,4,3,2,1,8,7,6,
{32}3b,4,5,6,7,8,1,2,3-7[8:1],4,5,6,7,8,1,2,
{1}3b/Cf,7b/E7/E8,,,
E
Re:MASTER
- SLIDE修正。 -- 嵐雅 (2021-06-27 12:57:29)
- MASTER譜面のノーツの配置ミス、SLIDEの速度の修正を行いました。 -- けもがみ (2026-03-11 16:05:21)
最終更新:2026年04月12日 09:27