BASIC
(160.0){1}1h[4:3],
{1}8h[4:3],
{1}1h[4:3],
{1}1h[4:3]/8h[4:3],
{1}1,
{1}2,
{1}3,
{1}4,
{2}5,5,
{2}6,6,
{2}7,7,
{1}1/8,
{4}1,1,1,,
{4}8,8,8,,
{4}1,1,8,8,
{1}1b/8b,
{4}8,8,7,7,
{4}6,6,5,5,
{4}4,4,3,3,
{4}2,2,1,1b,
{1}2-5[4:3],
{2},6,
{1}6-1[4:3],
{2},3,
{1}3-8[4:3],
{2},7,
{1}7-4[4:3],,
{2}3,3,
{2}2,2,
{2}1,1,
{4}1h[2:1]/8h[2:1],,,1b/8b,
{2}7,7,
{2}6,6x,
{2}5,5,
{1}4h[2:1]/5h[2:1],
{4}6,6,6,,
{4}7,7,7,,
{4}8,8,8,,
{4}1,1,1/8,,
{4}2,2,2,,
{4}3,3,3,,
{4}4,4,4,,
{4}5,5,4/5,,
{1}4h[2:1]/5h[2:1],
{4}4/5,4/5,3x/6x,,
{1}B4,
{1}B3,
{1}B2,
{1}B1,
{1}B8,
{1}B7,
{1}B6,
{1}B5,
{1}B3/B4,
{1}B5,
{1}B3,
{1}B6,
{1}Chf[1:4],,,,,
{4}1h[2:1]/8h[2:1],,,1b/8b,
{4}2,2,1/2,,
{4}3,3,3/4,,
{4}5,5,4,4,
{4}5,4,5,,
{4}6,6,5/6,,
{4}7,7,7/8,,
{2}1h[4:1],8h[4:1],
{4}1/8,1/8,2b/7b,,
{1}1-5[4:3],,
{4}6,6,5,5,
{4}5/6,5/6,4x/7x,,
{1}8-4[4:3],,
{1}3hx[4:3]/5hx[4:3],
{1}4hx[4:3]/6hx[4:3],
{1}4hx[4:3]/5hx[4:3],
{4}4/5,4/5,4/5,3b/6b,
{1}2h[2:1],
{1}1h[2:1],
{1}8h[2:1],
{1}7h[2:1],
{4}6,6,6,,
{4}5,5,5,,
{1}4-1[4:3]/5-8[4:3],,
{1}2b/7b,
E
ADVANCED
(160.0){1}3hx[2:1]/5hx[2:1],
{1}4hx[2:1]/6hx[2:1],
{1}Chf[4:5],,
{2}E1,B8,
{2}B7,E7,
{2}B6,B5,
{1}Ch[2:1],
{2}E2,C1,
{2}E6,E7,
{2}E8,E1,
{1}Ch[2:1],
{4}B7,C1,B3,,
{4}B2,C1,B6,,
{4}B5,B4,B3/B6,,
{1}Ch[2:1],
{4}E8,C1,E4,E3,
{4}E2,C1,E6,,
{4}B6,B5,B4,B3,
{1}Chf[2:1],
{2}1hx[2:1],8,
{2}7h[2:1],5,
{2}2h[2:1],4,
{2}4h[4:1]/5h[4:1],3/6,
{4}2,2,3,4,
{4}5,6,5/6,,
{2}4h[2:1],5h[2:1],
{4}4,4,4x/5x,,
{2}3h[4:1]/4h[4:1],3/4,
{2}5h[4:1]/6h[4:1],5/6,
{2}2h[4:1]/4h[4:1],2/4,
{4}1,1,1x/8x,,
{2}5h[4:1]/7h[4:1],5/7,
{2}3h[4:1]/4h[4:1],2x/5x,
{4}4,4,5,5,
{2}4h[4:1]/5h[4:1],3x/6x,
{1}2-6[4:3],
{4},,7,7,
{1}8-4[4:3],
{2},3x/5x,
{1}2^5[4:3],
{2},4/6,
{1}6^1[4:3],
{2},2,
{1}1-5[4:3]/8-4[4:3],
{2},3x/6x,
{2}E3,B3,
{2}B4,E5,
{2}B5/B6,B3/B4,
{1}Ch[2:1],
{2}B7/E8,B2/B3,
{2}B6/E6,E5,
{2}B3/E4,B6/B7,
{1}Chf[1:1],,,
{4}3,3,3/4,,
{4}6,6,5/6,,
{4}3,3,2/4,,
{4}6,6,5/7,,
{1}2V41[4:3]/7V58[4:3],
{2},2/7,
{1}1pp4[8:7]/8qq5[8:7],
{4},,2x/7x,2b/7b,
{4}3,2/4,6,5/7,
{8}8,8,8,,1/7,,,,
{4}6,5/7,3,2/4,
{8}1,1,1,,2x/8x,,,,
{4}7,6/8,2,1/3,
{8}4,4,4,,3x/5x,,,,
{2}2hx[4:1]/4hx[4:1],5hx[4:1]/7hx[4:1],
{4}1/2,3/8,4b/7b,,
{4}1x/8x,7,6,5/6,
{8}4/5,,3,,2,2,2,,
{4}1/8,7,6,5/6,
{8}4,4,4,,3x/6x,,,,
{8}5,5,5,,3,3,3,,
{4}2/4,1/8,2x/7x,,
{1}7x-4[8:3]/8x-3[8:3],
{1}1x-6[8:3]/2x-5[8:3],
{1}8b,
{4}3x,2x,1x,1b/8b,
{2}2h[4:1]/7h[4:1],2/7,
{4}3h[2:1],4,5,,
{4}6h[2:1],5,4,,
{2}3h[4:1]/5h[4:1],1b/7b,
{4}2/4,2/4,3,4,
{4}4/5,4/5,5,4h[4:1]/6h[4:1],
{4},Chf[4:7],,,{1},,
E
EXPERT
(160.0){16}2h[16:3],,,4h[16:3],,,3h[16:3],,,4,,,2x/5x,,,,
{16}7h[16:3],,,5h[16:3],,,6h[16:3],,,5,,,4x/7x,,,,
{16}3h[16:3],,,5h[16:3],,,4h[16:3],,,5,,,4x/5x,,3x/6x,,
{4}3x/6x,C1f/B2/B7,,,
{2}2h[1:1],3,
{2}4h[1:1],5,
{2}5h[1:1],6,
{2}7h[2:1],5,
{4}3,5,4/6,7,
{4}6,4,3/5,2,
{4}3/4,4/5,5/6,4/7^4[2:1],
{4}3,,,2/7,
{8}3/4,,4/5,,6,5,6,,
{8}5/6,,4/5,,3,4,3,,
{2}2h[4:1]/5h[4:1],4h[4:1]/7h[4:1],
{4}3/6,4-1[4:1]/5-8[4:1],,,
{8}2x,2,5,5,3,3,6,6,
{8}4,4,7,7,3,3,6,6,
{16}2x,,2,,7x,,7,,1x,8,1,8,1x,8,1,8,
{4}1xw5[4:1],,,2b/7b,
{8}3h[4:1]/6h[4:1],,,3/6,3/6,,4/3>6[2:1],,
{4}5h[2:1],,,7/4>7[2:1],
{4}6h[2:1],,,8/1s5[2:1],
{4}7h[2:1],,,2b/6b,
{4}4/3h[2:1],5,4,4/7,
{4}5/6h[2:1],4,5,2/5,
{8}3,3,5,,6,6,4,,
{4}3/5,4/6,4/5,1x,
{4}2/8,7/1^4[4:1],6h[4:1],,
{8}7h[4:1]/5p1[4:1],,,,6,6,1,,
{4}1/7,2/8^5[4:1],3h[4:1],,
{4}2h[4:1]/4q8[4:1],,3,1x/7x,
{4}3/4,5/6^1[4:1],4h[4:1],,
{8}2/4,,4/6,,8b,8b,8b,8b,
{16}2hx[16:3],,,3hx[16:3],,,4hx[16:3],,,5x,,,2xV41[2:1]/7xV58[2:1],,,,
{4},,,2x/7x,
{4}4/5,B1/E8/B8,E4/B4/B5,2/7,
{4}1/8,B5/B6/E7,B3/E3/B4,7/8,
{16}1x/6h[16:3],,,5h[16:3],,,4h[16:3],,,3x,,,2x/5x,,,,
{16}3h[16:3],,,4h[16:3],,,5,,5/6,,,,7x,,,,
{4}3/4,E1/B7/B8,B3/B4/E5,7/8,
{4}5/6,B1/E1/B2,E5/B5/B6,1x/2x,
{16}8/3h[16:3],,,4h[16:3],,,5h[16:3],,,6h[16:3],,,8x,,,,
{16}7h[16:3],,,6h[16:3],,,5,,4/5,,,,2b/6b,,,,
{8}3,3,5,4,6,,2/7,,
{8}4/5,4/5,4/5,4/5,4x/5x,,7b/2b>7[2:3],,
{1}Ch[2:3],,
{2}E8,E4/E6,
{2}E2,E4/E6,
{4}E8,E7,B4/E6,,
{4}E2,E3,E4/B5,,
{4}E8,E7,E6,E5,
{4}E4,E3,E2/E8,,
{1}B2/B3/B6/B7/Ch[1:1],,
{4}2h[4:1],3h[4:1],4h[4:1],5h[4:1],
{4}6h[4:1],7h[4:1],8,1/8,
{8}3,3,5,5,4,4,7,7,
{8}4,4,6,6,3,3,5,5,
{8}4x/5x,4/5,3x/6x,3/6,2x/7x,2/7,1x/8x,1/8,
{16}1x,8,1,8,1x,8,1,8,1x,8,1x,8,1x>8[4:3],8,1x,8,{1},
{16}2x/7x,,,5x/6x,,,3x/4x,,3x/4x,,,,1b/8b,,,,
{8}7-4[8:1],7,3-8[8:1],3,5,6,1/7,,
{8}2-5[8:1],2,6-1[8:1],6,4,3,2/8,,
{8}4/6,5,6,8,3/5,4,3,1,
{4}8-4[8:1],3>6[4:1],5b,,
{8}7,7^4[8:1],1,2,3,3^8[8:1],5,6,
{8}7x,,5/6,4/7,3/8,,1b/5b,,
{2}7hx[4:1]/8x-4[8:1],2hx[4:1]/1x-6[8:1],
{2}7x^4[8:1]/8x^3[8:1],C1f,
{16}7h[8:1]/8h[8:1],,,1h[8:1]/6h[8:1],,,5/2-5[8:1],,,,7,,7,,,,
{16}5h[8:1]/6h[8:1],,,4h[8:1]/7h[8:1],,,3/8-5[8:1],,,,1,,1,,,,
{16}1h[8:1]/2h[8:1],,,3h[8:1]/8h[8:1],,,4/7-3[8:1],,,,1,,1,,,,
{16}7h[8:1]/8h[8:1],,,1h[8:1]/6h[8:1],,,5/2^5[8:1],,,,8x,,8b,,,,
{8}2,2,4,5,7,7,5,4,
{8}2-5[8:1],2,8-4[8:1],8,1,,2b/5b,,
{16}3,4,,4,2,,6,5,,5,7,,1x/7x,,,,
{16}2,1,,1,3,,7,8,,8,6,,1b/6b,,,,
{1}C1f/B3/B7,
{4}3x/5h[2:1],2x,1hx[4:1],8b,
{4}1-5[8:1]/7-4[8:1],,2x/6x,4/5,
{2}5h[4:1]/6-8[8:1],5h[4:1]/6-1[8:1],
{2}4h[4:1]/3-1[8:1],4h[4:1]/3-8[8:1],
{4}5-1[8:1]/6-1[8:1],,8x,1b/7b,
{8}3,3,5,5,2,2,1/2,,
{8}7,7,1,1,6,6,5/6,,
{4}4/5,C1f/B2/B7,,,
{1}1x>8[2:1],
{1}4b/5b,
E
MASTER
(160)
{16}3x/4x,34,,25,,,5x/6x,56,,4/7h[16:3],,,1b,8b,1b,,
7x/8x,78,,16,,,1x/2x,12,,3h[16:3]/8,,,5,4,5,,
5x/6x,56,,47,,,3x/4x,34,,2h[8:1]/5h[8:1],,,{8}2x/6x,3x/7x,
{4}4xv1[8:1]/8xv5[8:1],4x/8x`Cf,,,
4/5h[1:1],6,,6,4h[1:1],3,,3,5h[1:1],B5/B6,,B6/B7,4h[1:1],B3/B4,,B2/B3,
{8}5,5,4,4,6,6,3,3,6,6,5,5,4,4,3,3,
45,45,56,56,45,45,34,34,{4}3V51[4:1]/5V37[4:1],,,4b/8b,
{8}34,3,35,3,23,3,34,3,56,6,46,6,67,6,56,6,
12,2,23,2,28,2,24,2,{4}8^3[8:1]*^5[8:1],8w4[8:1],8,2b/6b,
{16}2x,4,3,4,2,5,4,5,2,6,5,6,1b,,,,7x,5,6,5,7,4,5,4,7,3,4,3,8b,,,,
1x,8,1,8,1,8,1,8,{32}2x,3,4,,1x,8,7,,3x,4,5,,8x,7,6,,
{16}1x,1x,1x,1x,1x,1x,1x,1x,{4}1x,B2f/B4f/B6f/B8f/Cf,
{8}1h[8:3],,,4,3/4-8[8:1],,1>5[4:1]/4,,
7h[16:1],7h[16:1],7h[16:1],7,67,56,45,34,
1h[16:1]/7<3[4:1],1h[16:1],1h[16:1],1h[16:1],{4}1,25,
{16}B7/B8,,B3/B4,,E7,B6,B5,E5,{8}1,2,3,4,
{16}5/6-8[8:1],,4,,6,5,,5,6-8[8:1],,4,,6,5,,5,
6-8[8:1],,3,,6,5,,5,{8}8,47,1b/2b,,
{16}3/7h[16:13],,,,6,,,6,,,6,,,6,,,2h[8:5]/5,,,,3,,,3,,,3,,45,,,,
{4}5-1[8:1]/6,5/8V64[4:1],{8}2h[16:1],2h[16:1],2h[16:1],2,
23,34,45,56,2V46[4:1]/8h[16:1],8h[16:1],8h[16:1],8h[16:1],
{4}8,47,{16}B1/B2,,B5/B6,,E3,B3,B4,E5,
{8}7,8,1,2,{16}4,5,4,5,3b/6b,,,,
{4}3/4-8[8:1],1V36[4:1]/4,{8}7h[16:1],7h[16:1],7h[16:1],7,
67,56,45,34,2h[8:1],3h[8:1],4h[8:1],5,
B1f/B4f/B5f/B8f/Cf,,,B2f/B3f/B6f/B7f/Cf,,,1x-5[8:1]/8x-4[8:1],,
{4}1b>8[2:1]/8b`Cf,,,Cf,
{16}1/6h[16:3],,,5,{8}6,6,57,6,24,3,45,6,78,1,{16}3,4,3,,2b/5b,,,,
3x,3,,7x,7,,1x,1,,5x,5,,B3/B4/E3,,,,
6x,6,,2x,2,,8x,8h[16:3],,,7,,1b/6b,,,,
3h[16:3]/8,,,4,{8}3,3,24,3,57,6,45,3,12,8,{16}6,5,6,,4b/7b,,,,
{8}3,24,6,57,3,14,6,58,{16}2x,2,,8x,8,,4x,4h[8:1],,,5,,2b/7b,,,,
{1}4xq5[2:1]/5x,{16}4,6,4,6,3,7,3,7,2,8,2,8,1w5[16:3],,28,,
{0.5}1b<2[2:7],{4},E1,,E7,,E5,,E3,
{16}5,,,,4,,,5,,5,,4,5,,5,,3,,,,4,,,3,,3,,4,3,,3,,
6,,,,5,,,6,,6,,5,6,,6,,1,,,,8,,,1,,1,,8,1,,8,,
{1}E3/E7/Chf[4:15],{4},E2,,E8,,B34,,B6,,E1,,E3f/E7f,
{8}1x/2x,1,12,2,23,3,34,4,45,5,56,6,67,7,78,8,
{16}2,1,2,1,3,8,4,7,5,6,5,6,4,7,3,8,
{32}2x,3x,4x,5x,6x,7x,8x,1x,2x,3x,4x,5x,6x,7x,8x,1x,
2x,3x,4x,5x,6x,7x,8x,1x,2x,3x,4x,5x,6x,7x,8x,1x,
{1}2b/Ch[4:3],{16}2x/4x,,,5x/7x,,,4x/5x,,1-5[8:1],8,2,7,1b,,,,
7x/8x,,7,5,6,4,5,3,,25,,46,,25,,47,
7h[8:1],,1,7,2,8,3,1h[16:3],,,5,,3b/7b,,,,
1/2h[8:1],,3,2,5,4,7,6,7h[8:1],,6,7,4,5,2,3,
1,,28,,3,5,4,6h[8:1],,8,8,,1,2,1h[8:1],,
3,2,8,1,5,4,7,6,8h[8:3],,6,6,,3,3,,
18,,36,,8w4[8:1],1,7,2,8,,,,2b/6b,,,,
{48}1/7x,E7,B6,B5,E5,,{16}2,2h[8:1],,1,,1,
{48}2x,E3,B3,B4,E5,,{16}7,7h[8:1],,8,,,
1x/6x,1x/6x,,4x/7x,,2x/5x,,1x/8x,2b/7b,,,,B1f/B3f/B5f/B7f/Cf,,,,
8x-4[8:1],,,2x-6[8:1]/8x,,,2x/7hx[4:1],,{8},8,1b/6b,,
{16}1x-5[8:1],,,1x/7x-3[8:1],,,2hx[4:1]/7x,,{8},1,3b/8b,,
{16}5x-1[8:1],,,3x-7[8:1]/5x,,,3x/8hx[4:1],,{8},1,2b/7b,,
{16}8x-4[8:1],,,1x-5[8:1]/8x,,,1x/6x,,{8}7,45,Cf/E3f/E7f,,
1x-5[8:1]/8x-4[8:1],27,1b/8b,,18,36,{16}4,5,4,,
57,,6,,24,24,,1h[16:3]/8h[16:3],{4},{16}8,1,8,,
2x/4x,24,,5x/7x,57,,1x-4[8:1]/2x,1/2-6[8:1],{8},1,Cf,,
{16}5x/7x,57,,2x/4x,24,,7x/8x-5[8:1],7-3[8:1]/8,{8},8,Cf,,
{1}3<8[2:1]/8h[2:3],{4}3,2,1,2b/7b,
{8}45,45,36,,5-1[8:1]/6,,5/8z4[4:1],,
2h[16:1],2h[16:1],2h[16:1],2,23,34,45,56,
2z6[4:1]/8h[16:1],8h[16:1],8h[16:1],8h[16:1],8,,47,,
B2/B3,B6/B7,{16}E2,E8,E4,E6,C,,,,18,7,6,5,
3-1[8:1]/4,,5,,3,4,,4,3-1[8:1],,6,,3,4,,4,
3-1[8:1],,7,,3,4,,4,{8}1,25,7b/8b,,
{4}1xv4[8:1]/5xv8[8:1],1x>1[4:5]*<1[4:5]/5x`Cf,,,{1},
B2f/B4f/B6f/B8f/Cf,,,,,,,,,,,,,
E
Re:MASTER
最終更新:2026年04月05日 17:59