| アーティスト |
ユリイ・カノン feat.ウォルピスカーター&まひる |
BASIC
ADVANCED
EXPERT
MASTER
(150)
{16}3,,3,4,{8}3,3,5,2,8,4,6,{16}6,5,{8}6,6,4,7,36,,
2,{16}2,1,{8}2,2,8,3,5,1,7,{16}7,8,{8}7,7,1,6,2,7,
4x/5x,4x/5x,3x/6x,3x/6x,2b/7b,,,,
26,5,3,4,47,6,2,3,37,6,3,4,46,5,2,3,
36,5,3,4,47,6,2,3,57,6,45,3,24,,46,,
37,4,6,5,25,3,7,6,26,3,6,5,35,4,7,6,
36,4,6,5,25,3,7,6,25,3,45,6,4x/7x,,2x/5x,,
B5,E2,E8,B4,E6,E4,E8,E2,B5,B7,B4,B2,E1,C,E5,,
36,6,46,6,25,5,45,5,3-6[8:1]/4,4,4,4,4/7-2[8:1],4,4,4,
34,3,36,3,45,4,47,4,5/6^1[8:1],5,5,5,5,5,47,,
2^5[4:1]/5,5,6,6,7,7,4/8^5[4:1],4,3,3,2,2,16,,
{24}2,,2,{8}1,3h[4:1]/8,,{24}7,,7,{8}8,1/6h[4:1],,
{24}4,,4,{8}5,2b/7b,,,36,3h[8:1]/6h[8:1],,45,,
5b/7b,4,38,{16}2,4,{8}3h[8:1],2,13,8,
57,4,35,{16}2,7,{8}1-5[8:1],28,,,
{16}6,5,6,5,6,,47,47,,2,2,,{8}16,7,
38,4,6,{16}57,5/7h[16:3],{8},8b,1b/6b,,
3x/4x,5,16,{16}7,5,{8}6h[8:1],7,68,1,
24,5,46,{16}7,2,{8}8-4[8:1],17,,,
{16}3,4,3,4,3,,25,25,,7,7,,{8}28,3,
46,7,4,{16}38,3h[8:1]/8h[8:1],{8},38,1b/6b,,
4h[8:1]/7b,8,5h[8:1]/7,8,4h[8:1]/7,8,5x/7x,4x/8x,
2/6h[8:1],1,2/4h[8:1],1,2/5h[8:1],1,2x/4x,2x/5x,
6/8h[8:1],6,3/4h[8:1],3,5/7h[8:1],5,34,2,
{4}8^3[8:1]*^5[8:1],8,B2f/B6f/Cf/E2f/E3f/E6f/E7f,,
{8}2b/5h[8:1],1,2/4h[8:1],1,2/6h[8:1],1,2x/4x,1x/5x,
3h[8:1]/7,8,5h[8:1]/7,8,4h[8:1]/7,8,5x/7x,4x/8x,
1h[8:1]/3,3,5/7h[8:1],5,3h[8:1]/4,4,25,6,
5b/7b,18,2b/4b,56,{2}B3f/B7f/Cf/E4f/E8f,
{4}6h[2:1],B6,5h[2:1],B5,4h[2:1],B4,{8}3,3,3,,
{4}4h[2:1]/5,B4,5h[2:1],B5,4,36,{12}2x,4x,3x,7x,5x,6x,
{4}4^2[4:1],5,6^8[4:1],5,3^1[4:1],4,5^7[4:1],4,
2^4[4:1],1,8^6[4:1],1,2pp5[2:1],5,6,7,
5^2[8:1]/7h[4:1],,6,25,2h[4:1]/4^7[8:1],,3,47,
{12}7,,7,5,,5,4,,4,{4}3h[4:3],E4,C,E6,45,
1^6[8:1]/2h[4:1],,1,16,7h[4:1]/8^3[8:1],,8,38,
{12}3,,3,1,,1,8,,8,{4}7h[4:5],E1,E7,E3,E5,
{1}Ch[2:1],{8}27,E4/E6,27,B3/B6,2b/7b,,,,
5/7x,,3x/5,,5/6x,6,4x/5,4,5/7hx[2:1],,,5,5,,56,,
{4}3-1[4:1],4,5-3[4:1],6,7-5[4:1],8,8,17,
{8}5,4,6,5h[8:3],7,7,6,7,4,5,3,4h[8:3],2,2,3,2,
5,4,6,5h[8:3],7,7,6,7,1,2,4,5,3x-6[8:1],,6x,,
E8,E5,E6,C,E1,E4,E5,E2,B5,B7/E7,B4,B2/E3,E1,C,E5,,
26,2,35,3,47,4,56,5,5/7-3[8:1],5,5,5,2-6[8:1]/5,5,5,5,
57,7,36,6,45,5,24,4,3^8[4:1]/4,4,4,4,4,4,25,,
4/7^4[4:1],4,3,3,2,2,1^4[4:1]/4,4,5,5,6,6,7,,
{24}2,,2,{8}1,3h[4:1]/8,,{24}7,,7,{8}8,1/6h[4:1],,
{24}4,,4,{8}5,2b/7b,,,27,2h[8:1]/7h[8:1],,45,,
5b/7b,4,13,{16}2,4,{8}3h[8:1],2,13,8,
57,4,35,{16}2,8,{8}1-4[8:1]*-6[8:1],2,,,
{16}7,5,6,5,7,,48,48,,2,2,,{8}17,6,
45,3,26,{16}57,5/7h[16:3],{8},8b,1b/6b,,
24,5,68,{16}7,5,{8}6h[8:1],7,68,1,
24,5,46,{16}7,1,{8}8-3[8:1]*-5[8:1],7,,,
{16}2,4,3,4,2,,15,15,,7,7,,{8}28,3,
45,6,78,{16}16,1h[8:1]/6h[8:1],{8},16,3b/8b,,
2b/5h[8:1],1,2/4h[8:1],1,2/6h[8:1],1,2x/4x,1x/5x,
2h[8:1]/7,8,5h[8:1]/7,8,4h[8:1]/7,8,5x/7x,4x/8x,
1h[8:1]/3,2,3/5h[8:1],2,6/8h[8:1],7,46,7,
{4}1^4[8:1]*^6[8:1],1,B3f/B6f/Cf/E3f/E4f/E7f/E8f,,
{8}4h[8:1]/7b,8,5h[8:1]/7,8,3h[8:1]/7,8,5x/7x,4x/8x,
2/7h[8:1],1,2/4h[8:1],1,2/5h[8:1],1,2x/4x,1x/5x,
6/8h[4:1],7,4h[8:1]/6,7,1h[8:1]/3,2,3/5h[8:1],2,
1b/6b,57,2b/4b,18,3b/6b,,1b/8b,,
2b/4b,5b/7b,1b/3b,6b/8b,B2f/B6f/Cf/E2f/E6f,,,,
7,{16}7,8,{8}6h[4:1],5,4,35,1,24,3,{16}3,4,{8}2h[4:1],1,8,17,26,35,
6,{16}6,5,{8}7h[4:1],8,5,46,35,24,2,{16}2,1,{8}3,46,8,35,1,46,
3x/7x,1x/5x,2x/6x,4x/8x,{16}3b/5b,,,8bw4[8:1],,,1b/7b,,
{1}Cf,,,,,,,,,,,,
E
Re:MASTER
最終更新:2026年04月12日 09:02