アットウィキロゴ

居並ぶ穀物と溜息まじりの運送屋〈でらっくす〉

アーティスト hanzo

BPM BASIC ADVANCED EXPERT MASTER Re:MASTER
160 3 7+ 11+ 12+ -

EXPERT MASTER Re:MASTER
譜面制作者 小鳥遊さん 隅田川星人 -

BASIC


ADVANCED


EXPERT


MASTER

(160)
{1}1x>6[2:1]/7hx[4:3],2h[4:3]/8<3[2:1],
{4}1^4[2:1]/8,7,6,5,{8}46,7,35,2,46,7,35,2,
{16}7x,8,6x,1,5x,2,4x,3,1x,2,8x,3,7x,4,6x<5[2:1],5,
{4}6h[2:1],,,Cf,
{16}3,,4,,6,5,,7,,3,4,,25,,34,,6,,5,,47,,3,4,,6,5,,3,4,2,,
6,,57,,3,4,,25,,6,5,,47,,2,4,3,,7,5,6,,2,4,
{24}3x,4x,3x,4x,3x,4x,{4}3x,
{16}2,,1,,38,,7,1,,2,8,,47,,56,,7,,8,,16,,2,8,,7,1,,34,,25,,
1x,5,4,5,2x,5,4,5,3x,5,4,5,2x,5,4,5,
{4}1x^4[8:1]*^6[8:1],1xw5[8:1],1x,3b/7b,
{8}4h[4:1]/5,,5,46,,3,4,25,,{16}6,5,{8}6,47,6h[8:1],5h[8:1],4h[8:1],3,
,2,3,4,6,5,3,4,56,7,34,2,56,,47,,
2h[4:1]/4,,4,35,,6,5,47,,{16}3,4,{8}3,25,3h[8:1],4h[8:1],5h[8:1],6,
7^2[8:1],7,5,4,2x^7[8:1],2,4,5,6hx[4:1],5,2h[4:1],4,7h[8:1],{16}5,6,5,,,,
{8}2h[4:1]/4,,4,35,,6,5,47,,{16}3,4,{8}3,25,2h[8:1],4h[8:1],5h[8:1],7,
,2,3,4,6,5,3,4,56,7,18,2,34,,25,,
5/7h[4:1],,5,46,,3,4,25,,{16}6,5,{8}6,47,7h[8:1],5h[8:1],4h[8:1],2,
{16}3,4,3,4,3h[8:1],,1,,6,5,6,5,6h[8:1],,8,,
{8}3h[8:1],4,6h[8:1],4,2h[4:1],4,6h[4:1],4,
{16}3,4,2,5,3,4,2,5,{4}4w8[8:1],4b,
{8}6^8[8:1],5,4,,6^1[8:1],5,4,,6<3[4:1],5,4,,,,2x/6x,,
{4}1-5[8:1]/6h[4:1],1x,1-4[8:1]/6h[4:1],1x,1-5[8:1]/6h[2:1],1x^4[8:1],1x,C,
1^3[8:1]/5^7[8:1],1x/5x,4-2[8:1]/8-6[8:1],4x/8x,
1x^3[8:1]/5x^7[8:1],1-7[8:1]/5-3[8:1],1x/5x,2x/6x,
4h[8:1]/5h[8:1],4h[8:1]/6h[8:1],4h[8:1]/7h[8:1],4h[8:1]/8h[8:1],
{8}4/5x,4,4/6x,4,4/7x,4,4/8x,4,
{4}1x-3[8:1]/8x-4[8:1],1x/8x,1x-5[8:1]/8x-6[8:1],1x/8x,
{16}48,,,26,,,Cf/E3f/E7f,,{2},
{4}1-5[8:1]/8h[8:1],1^3[8:1]/7h[8:1],1-5[8:1]/8h[8:1],1^3[8:1]/7h[8:1],
1-5[8:1]/8h[8:1],1/7h[8:1],{8}18,2,35,,
{16}6,5,6,5,6,,78,,3,4,3,4,3,,12,,56,,3,4,2,,6,5,7,,45,,2b/7b,,,,
{4}1-5[8:1]/6h[8:1],1^3[8:1]/8h[8:1],1-5[8:1]/6h[8:1],1^3[8:1]/8h[8:1],
1-5[8:1]/6h[8:1],1^3[8:1]/8h[8:1],1/6h[8:1],3x/7x,
{8}48,7,6,5,48,1,2,3,{4}4/8^3[8:1]*^5[8:1],8xw4[8:1],8x,2b/6b,
{8}2^4[8:1],1,7^5[8:1],8,2q6[8:1],1,7p3[8:1],8,
2-6[8:1],8,7-3[8:1],8,2-5[8:1],1,7,8,
{16}3,4,3,4,3,,12,,6,5,6,5,6,,78,,34,,6,5,7,,3,4,2,,45,,2b/7b,,,,
1/2-5[8:1],,,1,2,,6,,7-4[8:1]/8,,,8,7,,3,,
1/2-5[8:1],,,1,2,,6<3[8:1],,{2}Cf,
{8},2x,4,5,7,5,2,4,{4}5/7-3[8:1],1-5[8:1]/7,1/6-2[8:1],4x/6x,
4^2[8:1]/5-2[8:1],4b/5b,4-7[8:1]/5^7[8:1],4b>5[4:3]/5bp4[4:3],{1}4b/5b,
2hx[4:3]/8x<3[2:1],1>6[2:1]/7h[4:3],
{4}1/8^5[4:1],2,3,4,{8}35,2,46,7,35,2,46,7,
{1}4>5[4:11]/6hx[2:1],7h[2:1],{2}3x,3x,{4}3x,3x,3x/4x,2x/5x,
{16}2x,5,3,4,2,5,3,4,2,5,3,4,2,5,3,6,4x,7,5,6,4,7,5,6,4,7,5,6,4,7,3,6,
2x,5,4,5,1x,5,4,5,2x,5,4,5,3x,5,4,5,2x,4,3x,5,4x,6,5x,7,{4}5xw1[8:1],5b,
2-4[8:1]/5,2x/1-5[8:1],1x/4-8[8:1],4x/5-7[8:1],2-4[8:1]/5x,1-5[8:1]/2x,1x/4,Cf/E3f/E7f,
4/7-5[8:1],7x/8-4[78:1],5-1[8:1]/8x,4-2[8:1]/5x,4x/7-5[8:1],7x/8-4[8:1],5/8x,Cf,
{8}2-4[8:1],2,1-5[8:1],1,4-8[8:1],4,5-7[8:1],5,1-3[8:1],1,8-4[8:1],8,3-7[8:1],3,6-2[8:1],6,
1-5[8:1],1,8-4[8:1],8,2-6[8:1],2,7-3[8:1],7,{4}1b-5[8:1],1b^4[8:1]*^6[8:1],1bw5[8:1],1b,
{16}2x,1,3x,8,4x,7,5x,6,8x,7,1x,6,2x,5,3x,4x,2x/5x,,,4x/7x,,,1x/8x,,{2}2b/7b,
{1}1h[2:7]/5,,B5/B6,B3/B4,{4}2hx[4:3],B2,C,B6,7yhx[4:3],B7,C,B3,
{8}4x/6x,7,35,2,46,7,35,2,{4}8x^3[8:1]*^5[8:1],8xw4[8:1],8x,2b/6b,
1^3[8:1]/8h[8:1],1-5[8:1]/4h[8:1],1^3[8:1]/8h[8:1],1-5[8:1]/4h[8:1],
1^3[8:1]/8h[8:1],1-5[8:1]/4h[8:1],1^3[8:1]/8h[8:1],1/4h[8:1],
{8}6hx[4:1],1,4h[4:1],1,6h[4:1],1,4h[4:1],1,6,{16}3,4,2,,6,5,7,,45,,2b/7b,,,,
1/2-5[8:1],,,1,2,,6,,7-4[8:1]/8,,,8,7,,3,,
1/2-5[8:1],,,1,2,,6<3[8:1],,{2}Cf,
{8},2x,4,5,7,5,2,4,{4}5/7-4[8:1],1-6[8:1]/7,1/8-4[8:1],1b/8b,
{16}36,,2,4,3,,7,5,6,,2,4,3,4,3,4,{4}2-5[8:1],1x/2x,7-4[8:1],7x/8x,
1x-5[8:1]/8x-6[8:1],1x/8x,1x-3[8:1]/8x-4[8:1],1x/8x,
1bp5[8:1]/8b^6[8:1],1b^3[8:1]/8bq4[8:1],1b/8b,B2f/B3f/B6f/B7f/Cf,
{1},,,,,,,,,,,,,
E

Re:MASTER


名前:
コメント:

タグ:

+ タグ編集
  • タグ:
最終更新:2026年04月05日 22:01