アットウィキロゴ

全力ハッピーライフ

アーティスト 森羅万象

BPM BASIC ADVANCED EXPERT MASTER Re:MASTER
190 4 7 10 12+ -

EXPERT MASTER Re:MASTER
譜面制作者 隅田川星人 はっぴー -

BASIC

(190.0){1},,,,
{1}1,
{1}1,
{1}8h[1:1],,
{1}1b/8b,
{1}1,
{1}1,
{1}2,
{1}2,
{1}3h[1:1],,
{1}4,
{1}4,
{1}5,
{1}5,
{2}4,4,
{1}4,
{2}5,5,
{1}4x/5x,
{1}6,
{1}6,
{1}7,
{1}7,
{2}8,8,
{1}8,
{2}1,1,
{1}1b/8b,
{1}B2,
{1}B3,
{1}B4,
{1}B5,
{1}B6,
{1}B7,
{1}8h[1:1],,
{1}B7,
{1}B6,
{1}B5,
{1}B4,
{1}B3,
{1}B2,
{1}B1/B8,
{1}B2/B7,
{1}Chf[1:2],,,,
{2}1,1,
{4}1,1,1,,
{2}2,2,
{4}2x,2x,2x,,
{2}3,3,
{4}3,3,3,,
{2}4,4,
{1}4b/5b,
{2}5,5,
{4}5,5,5,,
{2}6,6,
{4}6x,6x,6x,,
{2}7,7,
{4}7,7,7,,
{2}8,8,
{1}1h[2:1]/8h[2:1],
{2}1/8,1/8,
{4}1,8,1,,
{1}1-4[4:5],,,
{1}8-5[4:5],,,
{1}4h[4:3],
{2},5h[4:3],{1},
{2}4x/5x,4x/5x,
{4}3,3,3,,
{2}4x/5x,4x/5x,
{4}6,6,6,,
{1}B4/B5,
{1}B3/B6,
{1}Chf[1:2],,,,
{4}8,8,8,,
{4}8,8,8,,
{4}7,7,7,,
{4}7x/8x,7x/8x,7x/8x,,
{4}6,6,6,,
{4}6,6,6,,
{4}5,5,5,,
{1}4h[2:1]/5h[2:1],
{4}4,4,4,,
{4}4,4,4,,
{4}3,3,3,,
{4}3x/4x,3x/4x,3x/4x,,
{4}2,2,2,,
{4}2,2,2,,
{4}1,1,1,,
{1}1h[2:1]/8h[2:1],
{4}8,8,8,,
{1}1h[2:1]/7h[2:1],
{4}1,1,8,8b,{1},,
{4}1,1,1,,
{4}2,2,2,,
{4}3,3,3,,
{4}4,5,4,,
{1}5h[2:1]/6h[2:1],
{1}3h[2:1]/4h[2:1],
{1}5h[1:1],
{2},4x/6x,
E

ADVANCED

(190.0){1}3hx[1:1],
{1}4h[1:1],
{1}5h[4:5],
{2},5x/6x,
{1}7hx[1:1],
{1}8h[1:1],
{2}7x,8x,
{4}7x,8x,1x,2x,
{1}3-8[8:3],
{4}7,7,7/8,,
{4}2,2,1/2,,
{4}7,7,7/8,,
{4}1,1,2/8,,
{4}8,8,1,1,
{1}2h[2:1]/7h[2:1],
{2}3h[2:1],4,
{2}6h[2:1],5,
{2}3h[2:1],4,
{2}5h[4:1]/6h[4:1],5/6,
{1}3-8[8:3],
{1}7-4[8:3],
{1}3^8[8:3],
{2}7x,7x/8x,
{4}7,7,8,,
{4}2,2,1,,
{4}7,7,8,,
{4}1,1,2/8,,
{4}3,3,4,,
{4}6,6,5,,
{4}3,3,4,,
{4}5,5,4/6,,
{2}E7,B6,
{1}Ch[2:1],
{2}E3,B3,
{1}Ch[2:1],
{2}B6,B5,
{2}B3,B4,
{2}B3/B6,B2/B7,
{1}B1/B8,
{2}3h[4:1]/4h[4:1],3/4,
{4}6,6,6,,
{4}3,3,3,,
{4}5,5,4/6,,
{4}7,7,7,,
{4}2,2,2,,
{4}8,8,1,1,
{1}1-4[8:3]/8-5[8:3],
{4}3x,4x,5x,6x,
{2}2x/7x,3x/6x,
{2}2x/7x,2x/7x,
{2}1h[4:1]/8h[4:1],1b/8b,
{4}2,2,1,1,
{4}8,8,1/7,,
{4}6,6,5,5,
{4}4,4,3b/6b,,
{4}3,3,2,2,
{4}1,1,2/8,,
{4}6,6,7,7,
{4}1x/8x,1x/8x,2x/7x,,
{4}3h[2:1],4,4,,
{4}6h[2:1],5,5,,
{4}6,6,7,7,
{4}1x/8x,1x/8x,2x/7x,,
{4}2h[2:1],1,1,,
{4}7h[2:1],8,8,,
{4}6,6,5,5,
{1}4-1[8:3]/5-8[8:3],
{2}1x/8x,1x/8x,
{4}1x/8x,1x/8x,1x/8x,,
{1}2>6[4:3],
{2},7<3[4:3],{1},
{1}2>6[4:3],
{2},7<3[4:3],{1},
{4}2h[4:3],,,1,
{2},7h[4:3],
{4},8,,,
{2}E7,B6,
{1}Ch[2:1],
{2}E3,B3,
{1}Ch[2:1],
{2}B1,B2,
{2}B3,B4,
{2}B5,B6,
{2}B7,C1,
{2}1x/8x,1x/8x,
{2}2/7,2b/7b,
{4}2,2,3,3,
{4}4x/5x,4x/5x,3x/6x,,
{4}7,7,8,8,
{4}1,1,2b/7b,,
{4}3,3,2,2,
{4}1,1,2/8,,
{4}7,7,6,6,
{4}4x/5x,4x/5x,3x/6x,,
{4}3h[2:1],4,4,,
{4}6h[2:1],5,5,,
{4}6,6,7,7,
{4}1x/8x,1x/8x,2x/7x,,
{4}2h[2:1],1,1,,
{4}7h[2:1],8,8,,
{4}6,6,5,5,
{1}4-1[8:3]/5-8[8:3],
{2}1,2,
{1}3-6[8:3],
{2}5/6,5/6,{1},
{2}4x/5x,3x/6x,
{4}2b,2,1/2,,
{4}7,7,7/8,,
{4}2,2,1/2,,
{4}8,8,1/7,,
{4}2x,2x,1x,1x,
{1}1xpp4[1:1]/8xqq5[1:1],,
{8},4x/5x,,,4x/5x,
E

EXPERT

(190.0){8}3h[8:3]/4h[8:3],,,,,3x/4x,,,
{8}5h[8:3]/6h[8:3],,,,,5x/6x,,,
{8}3h[8:3]/4h[8:3],,,,,3x/4x,,2x/5x,
{4},2b/7b,2b/7b,,
{8}2h[8:3]/4h[8:3],,,,,2x/4x,,,
{8}5h[8:3]/7h[8:3],,,,,5x/7x,,,
{2}1x,2x,
{4}1b,2b,3b,4b,
{1}5pp1[2:1]*qq1[2:1],
{4}2,3/4,3,2/4,
{4}2h[4:1],4h[4:1],5h[4:1],7,
{4}7,5/6,6,5/7,
{4}7h[4:1],5h[4:1],4h[4:1],2h[4:1],
{8}7,,2/8,2/8,,1/7,,2V84[8:5]/6V84[8:5],{1},
{1}5/3pp5[8:3],
{1}4/6qq4[8:3],
{1}5/3qq1[8:3],
{8}7/8,,1/6,1h[8:3]/6h[8:3],,,,,
{8}1/2^5[4:1],,,,,6,6,,
{8}8/7^4[4:1],,,,,3,3,,
{8}1/2,,3,,6,4,6,,
{8}3/5,,3/6,3-1[8:1]/6-8[8:1],,,,,
{8}2,,3/4,,3,3,4,,
{8}7,,5/6,,6,6,5,,
{8}1,,3/5,,3,3,5,,
{8}8,,4/6,,5,5,4/6,,
{8}7,,6/8,,6,5,6,,
{8}2,,1/3,,3,4,3,,
{1}2^5[4:1]/8^5[4:1],
{8}4/5,,2/7,2h[8:3]/7h[8:3],,,,,
{4}5/6,5/6,4b/7b,,
{8}1/2,,1/2,1h[8:3]/2h[8:3],,,,,
{4}3/4,3/4,2b/5b,,
{8}7/8,,7/8,7h[8:3]/8h[8:3],,,,,
{4}1/2,1/2,3b/8b,,
{8}5/6,,6,6,,4,4,,
{4}7,4/6,2,3/5,
{1}2/7p5[8:3],
{4}2b/5b,4b/7b,3b/6b,,
{4}7,5/6,4,3/4,
{8}2,,1/2,,8,,1/7,1h[4:1]/7h[4:1],
{8},,,2b/6b,,,,,
{4}1/2,1/2^5[4:1]*v5[4:1],,,
{4}7/8,8/7^4[4:1]*v4[4:1],,,
{8}2,,3/4,,6,,7/8,7/8,
{8},1/2,1-5[4:1]/2-5[4:1],,,,,,
{8}5,,6,,7,,4/7,4/7,
{8},2/5,2/5,,1x/8x,,2x/7x,,
{2}B3/E4/B6/E6,B2/E2/B7/E8,
{4}3h[4:3],,,8b,
{4}1x/8x,2x/4x,1/8,5/7,
{4}1/8,3>7[4:1]/4p7[4:1],,,
{8}7/8,,1/6,,2,2,4,,
{8}7,7,5,4b/6b,,4b/6b,,,
{4}1/7,5/6,2/8,3/4,
{8}2/5,,6,6,5,,2/7,,
{4}2/4,1/8,5/7,1/8,
{1}3>5[2:1]/4p5[2:1],
{2}7/8-4[8:1],2/1-5[8:1],
{2}3/4-8[8:1],6/5-1[8:1],
{8}3x/8x,,2,2,4,,7,7,
{8}4x/6x,,3x/5x,,1x/8x,,2/6,6/2h[8:5],
{8},4,4,,1,,3/7,3/7h[8:5],
{8},5,5,,8,,1/5,,
{2}5b-1[8:1]/6-8[8:1],3-1[8:1]/4b-8[8:1],
{1}4qq1[2:1]/5pp8[2:1],
{2}2x/7x,3x/6x,
{8}1x/8x,1x/8x,1x/8x,1x/8x,1x/8x,,2,,
{4}2h[2:1],,3,3h[2:1],
{4},4,4h[2:1],,
{4}5,5h[2:1],,1,
{4}1h[2:1],,8,8h[2:1],
{4},7,7h[2:1],,
{4}6,6h[2:1],,2,
{4}2h[4:1],4,5,6,
{4}5/7,,7h[4:1],5,
{4}4,3,2/4,,
{4}B1,B2,B3,B4,
{4}B5,B6,B2/B7,,
{4}B8,B7,B6,B5,
{4}B4,B3,B2/B7,,
{4}3,3/4,6,5/6,
{4}3,2/4,6,5/7,
{8}3,3,6,6,2,2,7,7,
{8},2/8,2/8,,1x,,2x,,
{4}3/4p8[4:1]*q8[4:1],,,1/7,
{4}2/1p5[4:1]*q5[4:1],,,2b/6b,
{4}1/7,4/5,2/8,4/5h[4:3],
{4}B5,C1,B1,,
{8}7/8,,3/5,,6,6,4,,
{8}3,3,5,2b/6b,,2b/6b,,,
{4}4/5,1/2,4/5,7/8,
{8}4/5,,2,2,1,,3/6,,
{4}6/8,4/5,1/3,4/5,
{1}4/5pp5[2:1]*qq5[2:1],
{2}2/1-5[8:1],7/8-4[8:1],
{2}6/5-1[8:1],3/4-8[8:1],
{8}2/7,,1,1,4,,7,7,
{8}4x/6x,,3x/5x,,1x/8x,,2/6,6/2h[8:5],
{8},4,4,,1,,3/7,3/7h[8:5],
{8},5,5,,8,,1/5,,
{2}5b-1[8:1]/6-8[8:1],3-1[8:1]/4b-8[8:1],
{1}4qq1[2:1]/5pp8[2:1],
{2}3x/6x,2x/7x,
{1}1hx[2:1]/8hx[2:1],
{2}B4/B5/E5,B1/E1/B8,{1},
{2}B3/E4/B6/E6,B2/E2/B7/E8,
{1}6/3>5[4:5],,
{8}6,,5/7,,3,4,2/5,,
{4}5/7,4/5,2/4,1/8,
{8}7,,2/8,2/8,,1/7,,2V84[8:5]/6V84[8:5],{1},,
{8},4x/5x,,2x/7x,2x/7x,
E

MASTER

(190)
{8}6^3[8:1],,2,2,,18,,2,2^7[8:1],,5,5,,46,,7,
57,,2,24,,8<4[8:1]*>4[8:1],,,,,{4}2x/7x,B3/B4/B5/B6/Cf,,
{8}3^6[8:1],,7,7,,18,,7,7^2[8:1],,4,4,,35,,1,
{4}1b,56,2b,47,1b/5,2b/6,3b/7,4b/8,
2^5[8:1]/6^1[8:1],2x/6x,{8},3x/6x,3x-8[8:1]/6x,,
{4}6x-1[8:1],4x-8[8:1],5x-1[8:1],4,{8}3,3,1,1,8,8,6x-1[8:1],,
{4}3x-8[8:1],5x-1[8:1],4x-8[8:1],5,{8}6,6,8,8,1,1,3^6[8:1],,
7h[4:1],,1,1,,8V64[2:1],,Cf,,1,1,1,1,,2/4<8[2:1],,
{4}3,3,4,4,5,5,6,5>1[2:1]/7,6,6,5,5,4,{8}4,5,3,,2/4-8[4:1],,
2,,3,,4,6,5-1[4:1]/7,,7,,6,,6,4,3/6<3[4:1],,{2}Cf,1b,
{8}1x/8x,2x/7x,3x/6x,4x^1[8:1]/5x^8[8:1],{2},
{4}5-2[8:1]/6,8,5-8[8:1]/6,7,5-2[8:1]/6,8,5-8[8:1]/6,7,
56,8,1>5[4:1],5<1[4:1],1>5[4:1],5,1,26,
3/4-7[8:1],1,3/4-1[8:1],2,3/4-7[8:1],1,3/4-1[8:1],2,
Cf,,8b,45,{8}18,27,36,45,,3,34,,
{4}25,5-1[8:1]/6-8[8:1],5x/6x,,{8}1,1s5[8:3],,6h[8:3],,,,,
{4}47,3-1[8:1]/4-8[8:1],3x/4x,,{8}7,7V51[8:3],,4h[8:3],,,,,
{4}26,4-1[8:1]/5-8[8:1],4x/5x,,{8}1,1w5[4:1],{4},,37,
6-1[8:1],4,3-8[8:1],5,{8}6,,57,57,,4,36,,
{4}35,3-1[8:1]/4-8[8:1],3x/4x,,{8}8,8V64[8:3],,3h[8:3],,,,,
{4}15,37,{8}2-6[8:1],,8,8p3[4:1],,3,,2h[4:1],,8,8,,
{4}6^3[8:1],1,3^6[8:1],8,6^3[8:1],2,1,8-4[4:1],
4^1[4:1],1-5[4:1],5^8[4:1],8-4[4:1],4>5[2:1],6,,{8}1,1h[4:1],
,8,8,3,3,6,45,45,,18,18,,{2}B3/B6/Cf,
{4}1x/8x,4h[4:1]/5h[4:1],{8},27,2pp5[2:1]/7qq4[2:1],,{4},,,1b/8b-3[8:1],
2x/8x,1b-6[8:1]/8b,1x/7x,1-3[8:1]/8-4[8:1],
1-5[8:1]/8-6[8:1],1x/8x,3x/6x,{8}18,18,
,2,2-4[8:1],4v5[8:1],5-7[8:1],,,,8,8,1,2b/6b,,3b/7b,,,
{4}5-1[8:1]/6^3[8:1],,1x,1-5[8:1]/8-6[8:1],
1-3[8:1]/8-4[8:1],1x/8x,26,{8}1,1h[4:1],
,8,57,4,34,2,{4}1>8[2:1]/8,Cf,,,3^8[8:1]/7^4[8:1],
,15,37,4-8[8:1]/5-7[8:1],4-2[8:1]/5-1[8:1],4-8[8:1]/5-7[8:1],4x/5x,2x/6x,
{8}1h[4:1],,8,8,{2}3-6[8:1]/7-2[8:1],1V35[8:1]*V75[8:1],{8}2b/8b,,1,1h[4:1],
,8V64[8:1],8v2[8:1],,,,,2h[4:1],,1V75[8:1],1v3[8:1],,{2},
3-1[8:1]/4-8[8:1],5-1[8:1]/6-8[8:1],{4}1h[2:1]/8h[2:1],,,5-1[8:1]/7-1[8:1],
,2-8[8:1]/4-8[8:1],,57,{8}3b/6b,3b/6b,3b/6b,3b/6b,3b/6b,,2pp5[1:2],,
{4}8h[2:1],,,7h[2:1],,,6,6,6,7,7,7qq4[1:2],
1h[2:1],,,2h[2:1],,,3,3,3,2,2,2,
1,1V35[2:1],,8,8V64[2:1],,1,1V35[2:1],,8x,8x,,
18,24,18,57,{8}8,8,1,7h[4:1],,5,57,,
{4}18,35,18,46,{8}1,1,8,2h[4:1],,4,,1>8[2:3]/5,
,8x,{4}8x,1x,1x,2x,2x,3x,
{8}4x,4hx[4:1],,5x,5x,2x,2x,7x,7x,2x/7x,,18,18,,{2}B3/B6/Cf,
{4}1x/8x,4h[4:1]/5h[4:1],{8},27,2pp5[2:1]/7qq4[2:1],,{2},{8},1b/7b,1b/7b-4[8:1],,
{4}3x/7x,2b-5[8:1]/8b,2x/6x,1-3[8:1]/8-6[8:1],1-5[8:1]/8-4[8:1],1x/8x,2x/7x,{8}1,1h[4:1],
,5,3,7,{2}1>4[8:1]*>4[8:1],{8}8,8,2,3b/7b,,3b/7b,,,
{4}3/7V15[4:1],2-4[8:1],,1-5[8:1]/8-4[8:1],1^4[8:1]/8^5[8:1],1x/8x,2x/7x,{8}1x/8x,1x/8x,
,4,5,3,46,7,{4}1/8<1[2:1],Cf,,,2^5[8:1]/6^1[8:1],
,48,26,4-2[8:1]/5-1[8:1],4-8[8:1]/5-7[8:1],4-2[8:1]/5-1[8:1],4x/5x,37,
{8}8h[4:1],,1,1,{2}2-7[8:1]/6-3[8:1],8V24[8:1]*V64[8:1],{8}1b/7b,,8,8h[4:1],
,1V35[8:1],1v7[8:1],,,,,7h[4:1],,8V24[8:1],8v6[8:1],,,,,,
{2}5-1[8:1]/6-8[8:1],3-1[8:1]/4-8[8:1],{8}78,16,25,3h[4:1]/4,,5,5,,
{2}3-1[8:1]/4-8[8:1],5-1[8:1]/6-8[8:1],{8}12,38,47,56,,1,1,,
{2}8h[4:7],1h[4:5],,,{4}27,27,{8},4x/5x,4x>5[2:1]/5x,,
{4}Cf,,,18,{8}6-1[8:1],6,3-8[8:1],3,7-4[8:1],7,2,2,
{2}1^4[8:1]*^6[8:1],8^3[8:1]*^5[8:1],{8}3-8[8:1],3,6-1[8:1],6,2-5[8:1],2,8,8,
{16}1,,3,4,{8}2,16,,3/8<3[8:5],,Cf,,1,1,1,1,,36,,
,E6,E5,E4,,B7/E8,B2/E2,,,18,,4b/5b,
{1}2b/7b,,,,,,,,,,,,,,,
E

Re:MASTER


名前:
コメント:

タグ:

+ タグ編集
  • タグ:
最終更新:2026年04月09日 19:25