アットウィキロゴ

Oath Act

アーティスト 暁Records

BPM BASIC ADVANCED EXPERT MASTER Re:MASTER
172 3 6 9+ 12+ -

EXPERT MASTER Re:MASTER
譜面制作者 サファ太 隅田川星人 -

BASIC

(172.0){1},,,,,,,,,
{1}1,
{1}1,
{1}2h[1:1],,
{1}3,
{1}3,
{2}4,4,
{1}4/5,
{1}5h[1:1],,
{1}4h[1:1],,
{1}5,
{1}5,
{1}6,
{1}6,
{1}7,
{1}7,
{1}8,
{1}8,
{1}1,
{1}1,
{1}8,
{1}1x/8x,
{1}B7,
{1}B6,
{1}B5,
{1}B4,
{1}B3,
{1}B2,
{1}B1/B8,
{1}Chf[1:1],,
{2}8,8,
{4}1,1,1,,
{2}2,2,
{1}2h[2:1],
{2}3,3,
{4}4,4,4,,
{4}5,5,5,,
{1}4x/5x,
{2}4,4,
{4}5,5,5,,
{2}6,6,
{1}6h[2:1],
{2}7,7,
{4}8,8,8,,
{4}1,1,1,,
{1}1b/8b,
{1}8-4[4:3],,
{1}1-5[4:3],,
{1}7-4[4:3],,
{1}2-5[4:3],,
{2}6,6,
{1}5/6,
{2}3,3,
{1}3/4,
{1}B5,
{1}B4,
{1}B6,
{1}B3,
{1}B2/B7,
{1}Chf[1:1],,
{1}1h[1:2],,,,
{1}8h[1:1],,
{2}1/8,1/8,
{1}1b/8b,
{2}1,1,
{4}8,8,8,,
{2}7,7,
{1}7h[2:1],
{2}6,6,
{4}5,5,5,,
{4}4,4,4,,
{1}4b/5b,
{2}4/5,4/5,
{4}3h[4:3]/6h[4:3],,,,
E

ADVANCED

(172.0){1},
{1}3hx[1:2],,
{1}5h[1:2],,
{2}3,3,
{2}2,2,
{2}1,1,
{4}1/8,1/8,2b/7b,,
{4}2,2,1/2,,
{4}7,7,7/8,,
{4}2,2,1/2,,
{4}8,8,1/7,,
{4}6,6,5/6,,
{4}3,3,3/4,,
{4}5,5,4,4,
{4}4x/5x,4x/5x,3x/6x,,
{1}2>6[8:9],,
{1}8<4[8:9],,
{4}3,3,4,,
{4}6,6,5,,
{4}3,3,4,4,
{4}5,5,4/6,,
{1}7-3[8:3],
{1}2-6[8:3],
{1}8-5[8:3],
{1}4-1[8:3],
{4}7,7,8,,
{4}2,2,1,,
{4}7,7,8,8,
{4}1x/8x,1x/8x,2x/7x,,
{2}B2,B3,
{2}B4,B5,
{2}B6,B7,
{1}C1,
{2}2x,1/2,
{2}7,7/8,
{4}2,2,1/2,,
{4}7,7,7/8,,
{4}1/8,1/8,2b/7b,,
{4}2,2,1,1,
{4}8,8,1/7,,
{4}6,6,5,5,
{4}4,4,3/5,,
{4}2,2,1,1,
{4}8,8,2/7,,
{4}2,1/2,7,7/8,
{4}1,1/8,2/7,,
{4}7,7,8,8,
{4}1,1,2/8,,
{4}3,3,4,4,
{4}5,5,4/6,,
{4}7,7,8,8,
{4}1,1,2,2,
{1}5/3-8[8:3],
{1}1hx[2:1]/8hx[2:1],
{1}2>7[1:1],,
{1}7<2[1:1],,
{1}1^4[8:3],
{1}5^8[8:3],
{1}1^4[8:3],
{1}5hx[2:1],
{1}4-1[8:3],
{1}8-4[8:3],
{1}2-6[8:3],
{1}7^4[8:3],
{2}3,2,
{2}1,8,
{4}7,7,7/8,,
{4}2,2,1/2,,
{4}7,7,7/8,,
{4}1,1,8,8,
{1}2/7,
{1}Ch[1:3],,,,
{2}2/7,3/6,
{2}2/7,1/8,
{4}7,7/8,2,1/2,
{4}8,1,2/7,,
{4}2,2,1/2,1/2,
{4}3,3,2/4,,
{4}6,6,5/6,5/6,
{4}7,7,6/8,,
{4}2,2,1/2,1/2,
{4}3x,4x,5x,6x,
{2}5x/7x,2x/4x,
{1}3x/6x,
{1}4-8[8:3]/5-1[8:3],
{1}1-5[8:3]/8-4[8:3],
{1}3x/6x,
E

EXPERT

(172.0){1},
{1}B2/B3/B6/B7/Ch[1:3],,,,
{4}3,3,4,4,
{4}5,5,6,6,
{4}3h[4:1],4,6h[4:1],5-1[4:1],
{2},2b/8b,
{4}3,4,3,2/5,
{4}6,5,6,4/7,
{4}2,1,2,8/3>6[2:1],
{4},,,1/8,
{2}2h[4:1]/4h[4:1],5h[4:1]/7h[4:1],
{4}2/4,4/5,5x/7x,5x/7x,
{4}8,1/7,6,5/6q3[2:1],
{4},,,4/5,
{1}7b/2h[2:3],
{2}3,4,
{1}5^8[2:1],
{4}1h[2:1],,8,2/7,
{8}3/4,,2/5,,4,4,5,,
{8}5/6,,4/7,,5,5,4,,
{4}3,2/4,6,5/7,
{4}4h[4:1]/6h[4:1],,3/5,4/5,
{4}6,5/6,3,3/4,
{4}6h[4:3],5,7,5,
{4}3,3/4,6,5/6,
{4}2h[2:1],1,1,8b,
{8}5/7,,5/6,,3,3,4,,
{8}2/4,,3/4,,6,6,5,,
{8}3h[4:1]/4h[4:1],,,3/4,,2/1p5[8:3]*q5[8:3],,,
{4},,7x,7x,
{4}6/5h[2:1],,E6,E7,
{4}E8,E1,E2/E3,,
{4}4/3h[2:1],,E4,E6,
{1}B2/B7/Ch[2:1],
{2}1h[4:1]/2h[4:1],7h[4:1]/8h[4:1],
{4}E1,C1,E4/E6,,
{8}1/8,,2/4,2/4,,5/6<3[4:3],,4b,{1},
{8}4,5,4,,2b/7b,,,,
{2}1/2-5[8:1],8/7-4[8:1],
{16}2h[16:3],,,3h[16:3],,,4,,4/5,,,,6,,6,,
{16}5,,,,4/7,,,,6h[16:3],,,7h[16:3],,,8,,
{4}1/8,1/8,3b/6b,,
{2}8/7-4[8:1],1/2-5[8:1],
{16}7h[16:3],,,6h[16:3],,,5,,4x/5x,,,,2x/7x,,,,
{4}4/3h[4:1],1,8/7h[4:1],5,
{16}2x/8x,,,1x/7x,,,2x/6x,,,,4,,4/5,,,,
{2}5/6-1[8:1],4/3-8[8:1],
{16}6h[16:3],,,7h[16:3],,,8,,1/8,,,,2,,2,,
{16}1,,,,3/8,,,,2h[16:3],,,3h[16:3],,,4,,
{4}4/5,4/5,2b/7b,,
{2}4/3-8[8:1],5/6-1[8:1],
{16}3h[16:3],,,2h[16:3],,,1,,1/8,,,,2/7,,,,
{16}3/5,,,,4/6,,,,3h[16:3],,,4,,,2/5,,
{2}5/2-6[8:1],1b/7b,
{4}3h[8:3]/4h[8:3],,3/4,5/2^5[8:3],
{2},B7/B8,
{4}5h[8:3]/6h[8:3],,5/6,7/4q1[8:3],
{4},,8x,8x,
{8}7h[2:1],,,5,5,,4/6,,
{8}2h[2:1],,,4,4,,3/5,,
{8}4h[4:1]/6h[4:1],,,3h[4:1]/5h[4:1],,,2x/6x,,
{8}3,,4/5,,6,5,6,,
{8}7h[2:1],,,8,8,,1/6^1[8:3],,
{2},B3/B4,
{8}2h[2:1],,,1,1,,3/8,,
{8}4h[4:1]/6h[4:1],,,4/6,,2,2b/8b,,
{16}7h[16:3],,,5h[16:5],,,6,,6,,,,4/5,,,,
{16}3h[16:3],,,4h[16:5],,,2,,2,,,,1/8,,,,
{4}7h[4:3],8,6,5,
{4}3h[4:3],4,2,1,
{8}1/8,,5/7,5/7,,4/2<5[4:3],,8b,{1},
{8}1,8,1,,3x/6x,,,,
{1}4h[1:1]/5h[1:3],
{2},3,
{1}4h[1:2],
{2},6,
{2}6,3/5,
{16}1x/8x,,,2x/7x,,,3x/6x,,3x/6x,,,,1x/8x,,,,
{4}2h[4:1],4h[4:1],5h[4:1],7pp4[2:1],
{4}4b,,,3x/5x,
{2}1-5[8:1]/2-5[8:1],7-4[8:1]/8-4[8:1],
{16}3h[16:3],,,2h[16:3],,,1,,7/8,,,,6,,6,,
{16}5,,,,3/8,,,,7h[16:3],,,6h[16:3],,,5,,
{4}3/4,3/4,1b/6b,,
{2}1-5[8:1]/2-6[8:1],7-3[8:1]/8-4[8:1],
{16}2h[16:3],,,3h[16:3],,,4,,5x/6x,,,,2b/7b,,,,
{4}6h[4:1],8h[4:1],1h[4:1],3>5[2:1],
{4},,,3/4,
{16}1h[4:1]/2h[4:1],,,,,,,,7h[16:3],,,6h[16:3],,,5,,
{4}3/4-8[8:1],,1/7,3/5,
{1}C1f/B2/B6,
E

MASTER

(172)
{1} 2h[4:7]/8h[4:15],,4h[1:2],,
{4}5,5,4,4,5,45,4,45,6,56,3,34,
{16}45,,,45,,,27,,{2}2b/7b,
{4}2-7[8:1]/4,5,6-3[8:1]/8,1,2-7[8:1]/4,6-3[8:1],1-5[8:1],6,
1/7-4[8:1],2,3-8[8:1]/5,6,1/7-4[8:1],3-8[8:1],7,25,
3h[4:1]/7,{16}4,,4,3,5hx[16:3],,,6h[16:3],,,7h[8:1],,
8hx[16:3],,,1h[16:3],,,2h[8:1],,3hx[16:3],,,4h[16:3],,,5h[8:1],,
{4}7,25,{16}7h[16:3],,,3h[16:3],,,4h[8:1],,{1}1>8[2:1],
4xq5[4:3],Ch[1:2],7>5[4:5],{4},,,27,
7-4[8:1]/8-4[8:1],7x/8x,{8}25,1,8,1/7h[4:1],,6,57,6,45,3,24,,
1-5[8:1]/2-5[8:1],,1x/2x,,47,8,1,2h[4:1]/4,,3,24,3,45,,27,,
{4}3/5s1[1:1],2,2,2,2,3,38,25,5pp4[1:1],3,3,3,2,2,15,26,
7-4[8:1]/8-4[8:1],7x/8x,{8}25,1,8,5/7h[4:1],,6,57,6,45,3,24,,
2-5[8:1],,6-1[8:1],6,,4>5[2:1],,7h[8:5],{4},,,37,
{16}3h[16:3],,,4,,,25,,{2}2-4[8:1]/5-1[8:1],
{16}6h[16:3],,,5,,,47,,3h[16:3],,,4,,,25,,
2h[16:3],,,1,,,38,,7h[16:3],,,8,,,26,,
{4}4qq5[8:3]/8qq1[8:3],,,26,
1^4[4:1],4^7[4:1],7^2[4:1],2qq5[2:1],6h[2:1],,,18,
{8}6-1[8:1],,2-5[8:1],2,,7,,18,27,27,
{16}8,1,8,1,7,2,7,2,8,1,8,1,{8}8,27,27,,{2}B3/B4/B7/B8/Cf/E4/E8,
{8}2/7-4[8:1],,78,1,2-5[8:1],,12,8,
{16}5x/7x,,,7^4[8:1]/8^3[8:1],,,1x/6x,,{24}E1/E7,E2/E6,E3/E5,,,,{4}1b/6b,
{8}2h[8:3]/5,,4,5,{16}6h[8:3],,,8,,,2pp6[8:3],,{2}2h[2:1],{8},,78,1,
{4}24,{16}8h[4:1],,5x,4x,3xV15[4:1],,,8,,,7,,
6V84[4:1],,,1,,,2,,{4}B1/B8/E1,B4/B5/E5,
3-8[8:1]/7-4[8:1],3b/7b,2-5[8:1]/6-1[8:1],2b/6b,
{16}48,,,25,,,3b/7b,,{4},18,
{8}2^5[8:1]/7,,12,8,7^4[8:1],,78,1,
{16}2x/4x,,,1^6[8:1]/2^5[8:1],,,38,,{24}E1/E3,E4/E8,E5/E7,,,,{4}3b/8b,
{8}4/7h[8:3],,5,4,{16}3h[8:3],,,1,,,6qq1[8:3],,{2}6h[2:1],{8},,12,3,
{4}46,{16}4h[4:1],,1x,8x,7xV51[4:1],,,2,,,3,,
4V26[4:1],,,8,,,7,,{4}B1/B8/E1,B4/B5/E5,
{2}6^1[8:1]/8-4[8:1],{16}57,,,24,,,18,,{4}1pp4[4:1]/8qq5[4:1],,,2b/7b,
{1}7h[4:3]/8<2[2:3],8h[4:3],1>7[2:3]/2h[4:3],1h[4:3],
3>7[2:1]*<7[2:1]/C,6>2[2:1]*<2[2:1]/C,
{8}2b/6b,,34,1b/5b,,56,4b/8b,,78,,17,3h[4:1]/4h[4:1],,,26,,
{1}6h[4:3]/8<2[2:3],8h[4:3],1>7[2:3]/3h[4:3],{8}B4/B5,,,B1/B8,,,,,
{16}3h[16:3],,,2h[16:3],,,1,,{2}8-3[8:1]*-5[8:1],
{16}6h[16:3],,,7h[16:3],,,8,,{2}1-4[8:1]*-6[8:1],
{4}8^5[4:1],5^2[4:1],2^7[4:1],7pp4[2:1],3h[2:1],,,26,
{8}2-5[8:1],,6-1[8:1],6,,3,,45,27,27,
{16}4,5,4,5,3,6,3,6,4,5,4,5,{8}4,36,36,,{2}2b/7b,
{0.25}Ch[1:3],{2}1h[2:3]/4,
{24}E7,B6,B5,{8},,,{24}E3,B3,B4,{8},,,{4}B4/B5/E5,B1/B8/E1,
2-5[8:1]/5-1[8:1],2b/5b,4-8[8:1]/7-4[8:1],4b/7b,
{16}15,,,37,,,15,,{4}1b/5b,27,
{8}1-5[8:1]/2,,16,7,4/8-4[8:1],,38,2,
{16}15,,,7^4[8:1]/8^3[8:1],,,16,,{24}E1/E7,E2/E6,E3/E5,,,,{4}1b/6b,
{8}5/7h[2:1],,5,4,{16}3h[8:3],,,1,,,8qq3[8:3],,{2}8h[2:1],{8},,34,2,
17,,{16}6h[4:1],,8x,1x,2xq8[4:1],,,4x,,,5x,,
7xq5[4:1],,,1x,,,2x,,{4}B1/B8/E1,B3/B6/E3/E7,
1-4[8:1]/5-8[8:1],1b/5b,2-7[8:1]/6-3[8:1],2b/6b,{1}4pp7[2:1]/8pp3[2:1],
{2}B1/B3/B5/B7/Cf,B2/B4/B6/B8/Cf,{4}1>7[4:1]/5h[2:1],,,15,
{1}3b/7b,,,,,,,,,,,,,,
E

Re:MASTER


名前:
コメント:

タグ:

+ タグ編集
  • タグ:
最終更新:2026年10月01日 19:30