アットウィキロゴ

Komplexe

アーティスト 雄之助 feat. Sennzai

BPM BASIC ADVANCED EXPERT MASTER Re:MASTER
165 3 7+ 11 13+ -

EXPERT MASTER Re:MASTER
譜面制作者 華火職人 シチミヘルツ -

BASIC


ADVANCED


EXPERT


MASTER

(165)
{1}4s8[1:1]*z8[1:1],{2},7,{1}6^3[2:1],2>6[2:1],
7z3[2:1],2s6[2:1],{4}8-4[4:1],,,3>5[2:1],,,Cf,1x/8x,
{8}2h[4:7]/6,,3,3,,5,5,,4,4,,6,6-4[8:1],,,,
3/7h[4:7],,6,6,,4,4,,5,5,,3,3-5[8:1],,,,
6,6,57,57,3,3,24,24,{16}3,4,2,5,1,6,8,7,2,1,3,8,
{24}2x-6[8:1],1x,2x,1x,2x,1x,{32}2x,Cf,,,,,,,{4},,,
{12}5,5,5,4,4,4,{32}7,6,5,4,3,2,1,8,{4}3b/7,
{8}15,,3/8h[8:1],4,2/8h[8:1],4,1h[8:1]/6,5,1h[8:1]/7,5,
{16}1,8,1,8,2,7,2,7,1,1,,2x/7x,
{8},,1h[8:1]/6,5,1h[8:1]/7,5,2x/8x,,
{16}3h[8:1]/7h[8:1],,,2h[8:1]/6h[8:1],,,15,,2,4,3,5,4,6,5,7,
4h[8:1]/8h[8:1],,,1h[8:1]/7h[8:1],,,4h[8:1]/5h[8:1],,,2h[8:1]/8h[8:1],,,1x/6x,,,12,
1h[8:1]/2h[8:1],,,4h[8:1]/5h[8:1],,,7h[8:1]/8h[8:1],,,4h[8:1]/5h[8:1],,,3b/7b,,,,
{24}E6,B5,B4,{8}E4,,,{12}2,4,3,7,5,6,1,3,2,8,6,7,{16}4,5,3,6,1,8,1,8,
{1}2V48[4:3]/7,7V51[4:3],{2}2,4,{16}B7,B8,B1,B2,B3,B4,B5,B6,{4}C,1x/8x,
{2}2V48[4:3]/7,B5/B6,7V51[4:3],B3/B4,3V15[4:3],B5/B6,
7h[2:1],{16}4x,6,5,7x,6,5,6,,
48,,,,47,,,6,5,,5,,46,,,,45,,,,36,,,5,4,,4,,35,,,,
34,,,,25,,,3,4,,4,,35,,,,45,,,,36,,,4,5,,5,,2x/7x,,,,
{4}2h[8:1]/8h[8:1],3h[8:1]/4h[8:1],2h[8:1]/8h[8:1],3h[8:1]/4h[8:1],
1h[8:1]/7h[8:1],5h[8:1]/6h[8:1],1h[8:1]/7h[8:1],5-1[4:1]*s1[4:1],,,8x,
{16}B2,B8,B4,B6,B1,B7,B3,B5,{4}Ch[8:1],8b,27,
{4}3/6^3[4:3],,,2,{1}2q7[4:3],8<3[4:3],
{16}1x,,,,1,8,2,7,3,6,4,5,4,,,,
{8}5/7h[8:3],5,5,5,7x/8x,7,5/7h[8:3],5,5,5,5/7h[8:1],5,7x/8x,1,2x/7x,,
2h[8:3]/4,4,4,4,1x/2x,2,2h[8:3]/4,4,4,4,2h[8:1]/4,4,1x/2x,8,2b/7b,,
{2}4/6h[4:3],{8}5,5,4,2h[8:7]/5,{4},4,6,8x,
{2}4h[4:1]/6h[4:1],2h[4:1]/5h[4:1],4h[4:1]/8h[4:1],2b/6h[2:1],
{24}2,3,4h[24:43],{8},,,,,,,{24}7,6,5h[24:19],{8},,,,,,,
{16}4,5,4,5,3,6,3,6,2,7,2,7,1,8,1,8,
{24}2,3,4,,8,,3,4,5,,8,,{32}2,3,4,5,6,7,8,1,{4}2/6b,
{16}2v5[8:1],1,3,1,2,,8,,7v4[8:1],8,6,8,7,,1,,
3,4,,6,{8}5w1[8:1],37,5,,37,1,
{16}7v4[8:1],8,6,8,7,,1,,2v5[8:1],1,3,1,2,,8,,
{4}1x^3[8:1]/7xq3[8:1],1xp5[8:1]/7x^5[8:1],1xv4[8:1]/7xv4[8:1],1x/7x,
{8}26,3,4/8h[4:1],,{16}2,4,3,5,4,6,5,,
{8}1-5[8:1]/7,2,{4}1^6[8:1]/3,1^3[8:1],1v4[8:1]*v6[8:1],1,
{8}37,8,{16}3,1,2,8,1,7,{8}8,17,6,3/5-2[8:1]*-8[8:1],46,5,,3b/7b,,
{16}6-1[8:1],5,7,5,6,,2,,3-8[8:1],4,2,4,3,,5,,
7,8,,2,{8}1w5[8:1],37,1,,37,5,
{16}3-8[8:1],4,2,4,3,,7,,6-1[8:1],5,7,5,6,,4,,
{4}2xp6[8:1]/8x^6[8:1],2x^4[8:1]/8xq4[8:1],2xv5[8:1]/8xv5[8:1],2x/8x,
3h[4:7]/7h[4:7],,,,,,,{24}26,15,48,,,,
{16}2,5,4,5,3,6,5,6,4,7,6,7,8,7,1,7,
{24}2,3,4,5,6,7,8,1,2,3,4,5,{4}6/8w4[8:1],8b,
26,{8}3/8h[8:1],5,2/8h[8:1],4,1h[8:1]/6,4,1h[8:1]/7,5,
{16}1,8,2,8,3,7,3,6,4,5,4,,
{4}36,B1/B8/E2/E8,B4/B5/E4/E6,2x/7x,
{16}1h[8:1]/7h[8:1],,,3h[8:1]/4h[8:1],,,28,,2h[8:1]/8h[8:1],,,5h[8:1]/6h[8:1],,,17,,
{4}1-4[8:1]/7-4[8:1],17,3-6[8:1]/7-2[8:1],37,{8}15,48,{4}3-8[8:1]/7-4[8:1],37,26,
{16}5h[8:1]/7h[8:1],,,2h[8:1]/4h[8:1],,,{8}37,15,26,37,4h[8:5]/8,,8,8,,
{16}7,5,6,4,5,3,4,2,
{4}1s5[8:1]/8z4[8:1],18,{8}2/8h[8:1],5,2/8h[8:1],4,1h[8:1]/6,4,
{16}2,4,3,5,4,6,5,7,{4}4-8[4:1]/8z4[8:3],,,1-4[8:1]*-6[8:1],1,
{16}3h[8:1]/7h[8:1],,,2h[8:1]/6h[8:1],,,15,,1,4,3,8,5,6,1,8,
{8}2b/7b,,3/8h[8:1],5,2/8h[8:1],4,1h[8:1]/6,4,
1b/7h[8:1],4,2h[8:1]/8b,4,17,45,3b/7b,,
23,67,18,45,18,27,36,45,
{16}4/5h[4:1],3,2,1,8,7,6,5,48,37,26,15,48,,,,
{24}2b/6b,37,48,{4}1/5h[4:7],,,,,,,{24}B4,E4,
{1},,,,,,,,,,,,,
E

Re:MASTER


名前:
コメント:

タグ:

+ タグ編集
  • タグ:
最終更新:2026年03月29日 21:55