アットウィキロゴ

emomomo

アーティスト Ras

BPM BASIC ADVANCED EXPERT MASTER Re:MASTER
145 4 7 10+ 13+ -

EXPERT MASTER Re:MASTER
譜面制作者 小鳥遊さん はっぴー -

BASIC


ADVANCED


EXPERT


MASTER

(145)
{16}1,,,,35,,6,5,,47,,35,,14,,,6,,,,57,,3,4,25,,,47,,,26,,
8,,,,46,,3,4,,25,,46,,58,,,3,,6,5,,2,1,,56,,47,,{24}3,4,3,4,,,
{8}1/5h[4:1],,1,{24}E2,B2,B3,B7,B6,B5,{16},1,,28,,,
{8}3/5h[4:1],,3,{24}E4,B4,B5,{16}7h[16:3],,,6h[16:3],,,5,,
{8}4h[4:1]/8,,8,{24}E8,B7,B6,B2,B3,B4,{16},8,,17,,,
46,,3,4,,7,8,,46,,37,,1,8,27,,
46,,3,3,{8}5,7,46,1,35,7,{16}46,,3,3,{8}5,7,46,1,3^1[8:1]/5,5,
4,5,4/6^8[8:1],4,5,4qq5[8:3],5,5,6,6,6,6,B7/E8,B2/E2,E6,E4,
{16}35,,6,6,{8}4,2,35,8,46,2,{16}35,,6,6,{8}4,2,3,5,4/6^8[8:1],4,
5,4,3^1[8:1]/5,5,4,5pp4[8:3],4,4,3,3,3,3,B2/E2,B7/E8,E4,E6,
{16}46,,3,3,5,,6h[8:1],,4,4,5,3,7,,5,,46,,3,3,5,,7,,6,6,4,5,3^1[8:1],,5,,
{8}4,5,4/6^8[8:1],4,5,4qq5[8:3],5,5,6,6,6,6,B7/E8,B2/E2,E6,E4,
{16}35,,6,6,4,,3h[8:1],,5,5,4,7,2,,4,,35,,6,6,4,,2,,3,3,5,4,6^8[8:1],,4,,
{8}5,4,3^1[8:1]/5,5,4,5pp4[8:3],4,4,3,3,3,3,E4,E5,E6,,
{4}3h[2:1]/4-1[8:1],4,{8},8,4,,{4}5-8[8:1]/6h[2:1],5,{8},3,{24}5,,5,4,,,
{4}3h[2:1]/4-1[8:1],4,{8},8,4,,{4}5-8[8:1]/6h[2:1],5,{8},3,{24}5,,5,4,,4,
{4}5^8[8:1],3h[4:1]/5,{8},8,4,,{4}5-8[8:1]/6h[2:1],5,{8},3,{24}5,,5,4,,,
{4}3h[2:1]/4-1[8:1],4,{8},8,4,,{16}56,,7,8,,3,4,,{8}2x/5x,2x/5x,4x/7x,2x/5x,
{16}1,8,2,7,1,8,3,6,E2,E8,E3,E7,B1,B8,E4,E6,
1,8,3,6,2,7,4,5,E2,E8,E4,E6,B1,B8,B3,B6,
4,5,2,7,4,5,3,6,E4,E6,E3,E7,B3,B6,E2,E8,
1,8,2,7,1,8,3,6,E2,E8,E3,E7,E4,E6,B3,B6,
1,8,2,7,1,8,3,6,E2,E8,E3,E7,B1,B8,E4,E6,
1,8,3,6,2,7,4,5,E2,E8,E4,E6,B1,B8,B3,B6,
4,5,2,7,4,5,3,6,E4,E6,E3,E7,B3,B6,E2,E8,
1,8,2,7,1,8,{8}3,45,67,1p8[1:3]/8<1[1:3],23,{0.25}1b/8b,
{16}E1,B8,C,B4,{8}E5,,,5h[16:3],,,{16}E1,B8,C,B4,{8}E5,,,4h[16:3],,,
{16}E5,B4,C,B8,{8}E1,,,45,45,,{16}3h[8:1]/6h[8:1],,,45,,3,3,4,2,5,4,7,5b,,,,
{4}1/8h[2:1],E5,1h[2:1],E5,8h[2:1],E5,1h[2:1],E5,
8h[2:1],B4/E5,1h[2:1],B5/E5,8h[2:1],B4/E4/E5,1h[2:1],B5/E5/E6,
{8}8,7,6,5,1,2,3,4,{16}5,5,6,6,7,7,8,8,1,1,2,2,3,3,4,4,
{32}5x,6,7,8,1,2,3,4,5x,6,7,8,1,2,3,4,5x,6,7,8,1,2,3,4,5x,6,7,8,1,2,3,4,
{2}Cf,{16}B2,C,B6,,{4}1b/8b-5[8:1],
{16}8-4[8:1],,3,3,8-6[8:1],,1,,8,5,5,,47,,8,,
3,3,4,,2/5qq5[4:1],,6,6,,8,8,,6,,7,,
8<4[4:1],,4,4,,2,2,,1>5[4:1],,5,5,,7,7,,
8<4[4:1],,4,4,,2,2,,{8}1,26,1b-4[8:1]/8b,,
{16}1-5[8:1],,6,6,1-3[8:1],,8,,1,4,4,,25,,1,,
6,6,5,,4pp4[4:1]/7,,3,3,,1,1,,3,,2,,
1>5[4:1],,5,5,,7,7,,8<4[4:1],,4,4,,2,2,,
1>5[4:1],,5,5,,7,7,,{8}8,37,1b/8b-5[8:1],,
{16}8-4[8:1],,3,3,8^6[8:1],,1,,8-5[8:1],4,4,,3/8-4[8:1],,1,,
8-6[8:1],3,3,,4/8-5[8:1],,2,2,8,,1,,36,,7,,
8V64[4:1],,4,4,,2,2,,1V35[4:1],,5,5,,7,7,,
8V64[4:1],,4,4,,2,2,,{8}1,26,1b-4[8:1]/8b,,
{16}1-5[8:1],,6,6,1-3[8:1],,8,,1,4,4,,1/8-5[8:1],,2,,
8-4[8:1],3,3,,1/8-6[8:1],,2,2,{8}8,4,1-4[8:1]/8,7,
{16}1-5[8:1],,6,6,1-3[8:1],,7,,1,5,5,,
{8}1-5[8:1]/8-4[8:1],27,,18,2-5[8:1]/7-4[8:1],4^1[8:1]/5^8[8:1],{2},
{16}4h[16:3]/6,,,6,,,5,,,3,4,2,4,,E1,,,6,5,7,7h[8:1],,5,6,{8},5,7,8,
{16}2,2,4,3h[16:3],,,8h[16:3],,,5,,,46,,2,,1^4[8:1],,,4,,,5,,6,6,5,7,4,5,3,,
2x/6hx[16:3],,,3,,,4,,,6,5,7,6,,E1,,,3,4,2,2h[8:1],,4,3,{8},4,2,1,
{16}7,7,5,6h[16:3],,,1h[16:3],,,4,,,35,,6,,27,,1,8,,,36,,
{8}E8,E2,{24}B6,B5,B4,B3,
{1},,,,,,,,,,,,,,
E

Re:MASTER


名前:
コメント:

タグ:

+ タグ編集
  • タグ:
最終更新:2026年04月08日 22:53