アットウィキロゴ

ここからはじまるプロローグ。

アーティスト ああああ

BPM BASIC ADVANCED EXPERT MASTER Re:MASTER
182 4 7+ 10+ 13 -

EXPERT MASTER Re:MASTER
譜面制作者 サファ太 華火職人 -

BASIC


ADVANCED


EXPERT


MASTER

(182)
{8}E4,B6,B2,E8,,1^4[2:1],1,,,,,,,4h[4:1]/5h[4:1],,,
E7,B4,B8,E3,,5^8[2:1],{4}5,,,18,27,
4h[4:1]/5,{12},6x,5x,7x,,,,3x,4x,{16}2x,,,18,,,27,,{4}4-1[8:1]/5-8[8:1],4b/5b,
18,{16}46,,,8,{8}8,4,35,2/6h[2:1],,7,8,1,,27,27,,
45,,{16}57,,,2,{8}2,8,17,2h[8:7]/6h[8:7],{0.5},
{4}3,3,3,3,1,1,1,1,8,8,8,8,6,6h[4:1],5h[4:1],4h[4:1],
3,34,2,34,5,56,7,56,4,35,5,46,{1}2b/7b,
{8}2h[4:1]/7h[4:1],,,{16}6,5,{8}6,47,3,25,{4}6h[4:1],8h[4:1],1h[4:1],3h[4:1],
{8}6h[4:1],,5,{16}3,4,{8}3,25,6,47,{4}3p1[2:1],4,6,8,
{8}6h[4:1],8,4h[4:1],8,6h[4:1],8,4b,,3h[4:1],1,5h[4:1],1,3h[4:1],1,5b,,
2,38,7,16,2,38,7,16,{4}5h[4:1],8h[4:1],1h[4:1],4h[4:1],
5^8[8:1],B2/B3,4^1[8:1],B6/B7,5^8[4:1],B1/E2,4^1[8:1],B8/E8,
6^1[8:1],B7/B8,2^5[8:1],B3/B4,1^6[8:1],B7/B8,5^2[8:1],B3/B4,
{16}6,5,6,,B7/B8,,,,3,5,3,,B2/E2,,,,7,5,7,,B1/B8,,,,2,4,2,,B1/B8,,,,
5,4,5,4,B7/C,,,,1,8,1,8,{4}B2/C,8^3[8:1]*^5[8:1],8w4[8:1],8b,,
{8}6<3[4:3],,,4,4,,5,,6<3[4:3],,,5,5,,6,,{4}7h[4:3],8,5,6,68,18,12,23,
{8}4/3>6[4:3],,,5,5,,4,,3>6[4:3],,,4,4,,3,,2h[8:3],,,3,{4}3h[4:5],2>1[4:3],{1},
{8}B6,,,E4,,,C,,,,,{16}5,4,{8}5,,36,,B4,,,B5,,,Chf[4:3],,{1},
{4}18,{12}2,2,2,{4}4h[4:1],5,45,{12}6,6,6,{4}8h[4:1],1,
34,{12}2,2,2,1,1,1,8,8,8,7h[4:1],,,5,5,5,5h[4:1],,,4,4,4,
{4}34,25,56,47,45,23,18,67,
{16}45,,2,1,2,,7,8,7,,4,5,4,5,4,,27,,3,4,3,,6,5,6,,1,8,1,8,1,8,
{8}1h[8:3],,5,5h[8:3],,4,4,2b/7b,,4b/5b,1b>8[4:1]/8b,1b/8b,{2},
{4}7^2[4:1],6,6^3[4:1],8,7-2[4:1],6,6-3[4:1],8,
4/7v2[4:1],6,6v3[4:1],8,{1}8pp4[2:1]*qq4[2:1],
{4}2/5h[4:3],6,B2/B3/E3,,5h[4:3]/6,4,B2/B3/E3,,
7^4[4:1]/8,1,2,34,{2}5-1[8:1]/6-2[8:1],{24}2b,3,4,5,6,7,{4}8b,
28,{12}4/6q3[8:1],,2,{4}2-6[8:1],8b,17,{12}1/3p6[8:1],,5,{4}5-8[8:1],1b,
1-5[8:1]/7,12,1/8-4[8:1],78,1-4[8:1]/8-5[8:1],18,2b/7b,,
4h[4:1]/5,{12}2q7[8:1],,1,{4}1,8b,4/5h[4:1],{12}7p2[8:1],,8,{4}8,1b,
45,{12}3,4,2,6,5,7,3,4,2,{4}7h[2:1],8,1-5[8:1],1b,
{4}57,45,24,{12}8,1,8,{4}27,56,34,{12}8,1,8,
{4}27,B2/B7/C,45,B3/B6/C,{0.5}2h[4:7]/7h[2:3],
{8}6,6,4,4,,5,5,3,,45,45,,36,,36,,2,1,8,7h[4:1],,8,1,2h[4:1],,4,4,18,,45,,2b/7b,
,5,68,1h[4:1]/7,,4,4,3h[4:1],,5,6,7,,28,28,,
{4}17,13,{8}4,4,35,2h[4:1]/6h[4:1],,,,3h[4:1]/7h[4:1],,,4b/8b,,
{4}B1/B8,B7,B6,B5,B4,B3,B2,B1,8,67,5,34,2,18,27,,
{8}2,2,4,4h[4:1],,5,5,7h[4:1],,5,5,4h[8:3],,,2,,{1}1^4[2:1]/8^5[2:1],{4}6,45,3,45,
{16}5,4,5,4,6,3,6,3,7,2,7,2,8,1,8,,2h[4:1]/7h[4:1],,,,,,45,45,
{1}4b/5b,,,,,,,,,,,,,,,,
E

Re:MASTER


名前:
コメント:

タグ:

+ タグ編集
  • タグ:
最終更新:2026年04月28日 00:53