アットウィキロゴ

カラッポ・ノンフィクション

アーティスト Ino(chronoize) feat. 柳瀬マサキ

BPM BASIC ADVANCED EXPERT MASTER Re:MASTER
170 3 7 10 13+ -

EXPERT MASTER Re:MASTER
譜面制作者 はっぴー Jack -

BASIC


ADVANCED


EXPERT


MASTER

(170)
{16}5,4,{8}3h[2:1],,,,4h[8:3],,,5h[2:1],,,,7-5[8:1],,,,
{16}3,4,{8}5h[2:1],,,,4h[8:3],,,3h[2:1],,,,2-4[8:1],,,,
{16}6,5,{8}4,3,2,1,8h[8:3],,,1h[2:1],,,,8-4[8:1],,,,
{16}2,3,4,5,6,7,8,1,2,3,4,5,6,7,,,{8}3h[8:3]/7h[8:3],,,,3-8[8:1]/7-4[8:1],,,,,
34,25,,7,6,5,4,34,,7,8,1-4[8:1]/7,,8,,{16}6,5,
{8}6,47,,2,3,4,5,56,,2,1,2/8-5[8:1],,1,,{16}1,8,
{24}1,2,3,4,5,6,7,8,1,2x,3,4,{8}5,4xqq1[8:5]/5xpp8[8:5],,4b/5b,,,,,,27,8,1,
27,{4}2/7^2[4:1],2^5[4:1],5<4[2:1],Chf[2:1],,,,
{32}1,8,1,8,{16}7,6,5,4,3,2,1,8,7,6,5,,,,,,
{8}4h[2:1]/6,,,,5h[8:5],,,3h[4:1],,,,4,,,,,
3h[2:1]/5,,,,7h[8:5],,,5h[4:1],,,,57,,,,,
3/5h[2:1],,,,2h[8:5],,,4h[4:1],,,,24,,,,,
3/5h[2:1],,,,4h[8:5],,,6h[4:1],,,,3-6[8:1]/5,,6,,,
47,6,5,47,,3,4,35,,7,6,5-3[8:1]/7,,,,,
25,3,4,25,,6,5,46,,35,,2/4-6[8:1],,,,,
36,4,5,36,,7,6,57,,2,3,24,,3>6[8:5]/6,,Ch[8:5],
{4},,,{8},3,4,5,6,45,{2},
{4}5-3[8:1]/6,6,{8}7,7,57,,{4}3/4-6[8:1],3,{8}2,2,24,,
3h[4:1]/6h[4:1],,,36,45,45,,
{24}E1,C,E5,,,,E8,E7,E6,,,,E2,E3,E4,{12}7,5,6,2,4,3,
{8}4x/5x,6,45,3,45,7,45,2,34,7,56,2,34,8,56,1,
24,8,57,1,24,3,57,6,14,3,58,6,14,2,58,7,
{16}1,8,1,8,2,7,2,7,3,6,3,6,4,5,
{4}4^1[8:1],4x/8^5[8:1],1/8x,{8}3x/4x,1b/6b,,
{4}7-4[8:1]/8-3[8:1],78,{8}12,{4}1-4[8:1]/2,1/8-5[8:1],7<2[8:3]/8,1h[8:3],{8},8x,,
2-5[8:1]/6,,7,{4}7-4[8:1],3h[4:1],2^7[8:1],4>5[8:3],5,{16},,8x,,2,1,
{8}2,,47,{4}4/7^2[4:1],2^5[4:1],5^8[4:1],8^3[4:1],3^6[4:1],6,
{8}1-5[8:1],1x,,,2-4[8:1]/8-6[8:1],2x/8x,,,5,45,,27,1p4[8:1]/8q5[8:1],,1x/8x,,,
{4}1-6[8:1]/2-5[8:1],12,{8}78,{4}7/8-5[8:1],1-4[8:1]/8,1/2>7[8:3],8h[8:3],{8},1x,27,
{4}3/6^3[8:1],1h[4:1],{8}8,{4}1-4[8:1]/8,6-3[8:1]/1x,2-7[8:1]/6x,2x/5-8[8:1],4x/5x,
{2}3qq8[8:5]/8hx[4:1],4^7[8:1],1hx[4:1]/6pp1[8:5],5^2[8:1],{8},
3h[4:1]/8,,4,1/6h[4:1],,5,27,18,,3/6<3[4:1],4,5,{4},18,
27,36,{8}45,{4}4/5^8[4:1],8^3[4:1],3^6[4:1],6^1[4:1],1^4[4:1],4^7[4:1],,
{8}1,2,34,,8,7,56,,3,2,1pp4[8:5]/5pp8[8:5],,{1},
{24}E1,C,E5,,,,E2,E3,E4,,,,E8,E7,E6,,,,{16},,3,5,4,6,
{8}5,37,{16}6,4,5,3,{8}4,35,26,1-5[8:1]/7,,5,6,7s3[4:1],,3s7[4:1],,,
{4}1h[4:1],8-4[8:1],{8}4,3,2,{4}1q5[8:1]/5^8[8:1],1xp5[8:1]/5x^2[8:1],1x/5xw1[8:1],,3b/7b,{8},
{16}18,27,36,45,{8}3h[8:1]/6h[8:1],,27,18,,2/6-2[8:1],26,,3-5[8:1],7-1[8:1],3,7,
4,4h[4:1],,{16}5,5,{8}4,37,26,1^4[8:1]/8^5[8:1],,18,,27,{16}4x,3x,2x,1x,5x,6x,7x,8x,
{8}12,2,2,2,24,4,4,4,45,5,5,5,57,7,7,7,
78,6,45,3,12,3,45,27,{16}1,8,1,8,2,7,2,7,3,6,3,6,4,5,4,5,
{24}2x,3x,4x,5x,6x,7x,{16}1,8,{8}3,4,5,6,,{0.25},
{16}2x/7x,6,5,4,1,2,3,4,8,7,6,5,{8}4,45,3x/6x,
{16}27,3,4,5,8,7,6,5,1,2,3,4,{8}8-4[8:1],8x,,,1-3[8:1]/7-5[8:1],1x/7x,,,4,
4x/5x,45,3x/6x,36,{16}1x-5[8:1]/8x-4[8:1],27,3x/6x,,{4}1x/8x/Cf,
{8}2b/7b-3[8:1],,2,{4}2-6[8:1],1-5[8:1]/2,1/8-4[8:1],7<2[4:1],{8}1h[8:3],,,8^5[8:1],2,
{4}4^1[8:1]/8x,4x/6,{8}1x/8,{4}1x/8-5[8:1],3-6[8:1]/8x,3x/7-2[8:1],4-1[8:1]/7x,4x/5x,
1h[4:1]/6pp1[8:5],,5x^2[8:1],Cf,3qq8[8:5]/8h[4:1],,4x^7[8:1],Cf,{8},
1/6h[4:1],,5,3h[4:1]/8,,6,27,18,,27,36,45,{16}3,4,1,,6,5,8,,
{8}3/C,,,,7/C,,,{4}2/C,6/E1,3/C,7/E5,1h[8:9]/C,
{8},,,,,,,{16}E1,E8,E7,E6,E5,E4,E3,E2,E1,E8,E7,E6,E5,,,,
{8}3h[4:1]/C,,,6h[4:1]/C,,,{24}2/E8,3,4,,,,7/E2,6,5,,,,
{8}18,,,,,C,
{1},,,,,,,,,,,,,,,,,
E

Re:MASTER


名前:
コメント:

タグ:

+ タグ編集
  • タグ:
最終更新:2026年04月11日 19:21