| アーティスト |
RD-Sounds feat.中恵光城 |
BASIC
ADVANCED
EXPERT
(151){2}3h[2:1],4h[2:1],5h[2:1],6,6h[2:1],5h[2:1],{4}4,4,3/5,,{2}3h[2:1],4h[2:1],5h[2:1],6,4/5h[4:3],4h[4:1],{4}4/5,3/6,2/7,1b>8[2:3]/8b<1[2:3],{1},,{2}2h[4:1]/4h[4:1],5h[4:1]/6h[4:1],{4}4/5,4/5,{8}3x/6x,3x/6x,3b/6b,,2/4,,3,,6,6,5,,7,7,8,,1/6,,2/8,,7/5,,6,,3,3,4,,2/5,,3/6,,{8}4x/5x,4x/5x,4x/5x,,
{4}3<6[8:3]/6,,7h[2:1],,6h[4:1],5h[4:1],4,4/5,6>3[8:3]/3,,2h[2:1],,3h[4:1],4,2/5,,7<4[8:3]/4,,3,2,2>5[8:3]/5,,6,7,7h[4:1]/8h[4:1],,2h[4:1]/1h[4:1],,1/8,1/8,
3x/6x,,{8}7,7/8,,1/7,,3/4,,5/6,6,4/7,,2/5,,7/8,,1/2,2,3/8,,1/6,,5/6,,2,2/5,,E3/B3/B4,,E7/B6/B5,,,,3,3/4,,2/6,,4/7,,1/2,2,3/8,,1/6,,3/5,,7/8,7,1/6,,3/5,,
1/2,,3,3p6[4:1]/4,,,,,,1x/8x,,2h[4:1]/4h[4:1],,,,3,2/4,,,5h[4:1]/7h[4:1],,,,6,7/5,,,5h[4:3]/6h[4:1],,,,4h[2:1],,,,E4,,E3,,E2/E8,,,,5h[2:1]/6h[4:1],,,,6,5/7,,,
4h[2:1]/3h[4:1],,,,3,4/2,,,E4,,B5,,E7/E8,,E6,,B4,,E2/E3,,E1,,E5,,3h[4:1]/6h[4:1],,,,4h[4:1]/5h[4:1],,,,4x/5x,,3x/6x,,Cf/B2/B3/B6/B7,,,,
{4}1x-5[8:1],7>4[4:1],4b,,3-7[8:1],8<3[4:1],1b,{8},2x,2x/8x,,3/4,2,1/7,,6/5,7,8-4[8:1]/2h[4:1],,,,1b/6b,,,,7,7,4,5,2,2,1/2,,3/8,,4/5,,1b/6b,,1/6,,3>8[4:1],,6,6,6>3[4:1],,2,2,2,,1/8,,3/4,2/5,1b/6b,,{4}8x-4[8:1],2<5[4:1],5b,,6-2[8:1],1>6[4:1],8b,{8},7x,7x/1x,,6/5,7,8/2,,3/4,2,1-5[8:1]/7-4[8:1],,,,2b/6b,,,,6,6,1,8,3,3,3/4,,2/5,,1/8,,4b/7b,,4/7,,2>5[4:1],,7,7,7>2[4:1],,3,3,3,,4/5,,7/8,1/6,2b/5b,,
{4}3x-1[8:1],5-7[8:1],4-1[8:1],5-8[8:1],4-2[8:1],6-8[8:1],{8}1x,1x,2x/8x,,2,2,4,,6,6,5,,3-8[8:1]/7-4[8:1],,,,2b/6b,,,,{4}6x-8[8:1],4-2[8:1],5-8[8:1],4-1[8:1],5-7[8:1],3-1[8:1],{8}8x,8x,7x/1x,,5/6,,3/4,,5/7,,1>4[4:1]/8<5[4:1],,,,,,E7/B6/E6,,E3/B3/E4,,
{4}B7/Cf/B2,,,1x/8x,{8}2,2,4,,6,6,5,,7h[4:1],,5h[4:1],,3h[4:1],,1,,2/4,,3/5,,6,7x/8x,7x/8x,,1>4[4:1],,,,5<8[4:1],,,,
2,2,1,,7,7,5,,2h[4:1],,4h[4:1],,6h[4:1],,8,,5/7,,2/4,,1x/8x,2x/7x,3b/6b,E
MASTER
(151)
{4}47,25,
{2}8^5[4:1],4q1[4:1],{4}5h[4:3],8,6h[4:1],,
{2}1^4[4:1],5p8[4:1],{4}4h[4:3],1,3h[4:1],,
{2}7^2[4:1],3p6[4:1],{4}8h[4:1],6,4h[4:1],{8},26,
26,,5,4,{4}38,16,{8}37,37,26,26,{2}1-4[8:1]/8-5[8:1],
{8}3hx[4:1]/6hx[4:1],,,{16}3,4,{8}2h[4:1]/5h[4:1],,,{16}2,1,
{8}3h[4:1]/8h[4:1],,,{16}8,1,{2}2-4[8:1]/7-5[8:1],
{8}3hx[4:1]/6hx[4:1],,,{16}6,5,{8}4h[4:1]/7h[4:1],,,{16}7,8,
{8}16,,38,,E2/E6,E4/E8,E3/E7,,
{8}5,46,3,24,1-5[8:1],28,,,6,78,1,23,{16}4,5,4,,{4}36,
{8}4,35,6,57,8h[4:1],1,1,{16}3,4,2,,6,5,7,,{8}1-5[8:1],1,B6/E7,B8/E8,,
3h[4:1],,4,3,2h[4:1]/5h[4:1],,,6,6h[4:1],,5,6,4h[4:1]/7h[4:1],,,2,
2h[4:1],,1,8,7h[4:1],,8,1,{4}2-6[8:1],8-4[8:1],3h[4:1],,
{8}6h[4:1],,5,6,4h[4:1]/7h[4:1],,,6,6,5,4,3,34,45,56,,
7h[4:1],,5,4,2h[4:1],,4,5,{4}7<3[4:1],Ch[4:1],{8},1x/8x,1x/8x,,
5,46,7,68,1-5[8:1],6,,6,4,35,2,13,8-4[8:1],1x,1x,,
3>7[8:1]/6,,4,5,6<2[8:1],,5,4,{4}3-7[8:1],1x-5[8:1]/3x,{8}1x/4x,B3/E3,B1/E2,,
4,35,2,13,8-4[8:1],3,,3,5,46,7,68,1-5[8:1],8x,8x,,
2h[4:1],,7h[4:1],5,5h[4:1],4,4h[4:1],2,{4}2>7[4:1],Ch[4:1],{8},1x/8x,1x/8x,,
{2}6-2[8:1]/3h[4:1],{8}13,24,,,{2}2h[4:1]/7-3[8:1],{8}24,13,,,
25,3,47,6,{2}2-6[8:1]/5h[1:1],{8}B7/B8,B5/B6,B3/B4,B1/B2,{2}C,
3-7[8:1]/6h[4:1],{8}68,57,,,{2}2-6[8:1]/7h[4:1],{8}5-1[8:1]/7,68,,,
2x/8x,{16}3,4,3,4,2,,1x/3x,,,,1x/7x,,6,5,6,5,7,,{8}6x/8x,,12,34,56,78,
{4}1hx[4:1]/2x-6[8:1],{32}B2,C,B6,,,,,,
{4}7x-3[8:1]/8hx[4:1],{32}B7,C,B3,,,,,,
{4}27,{32}1b/8b,2x/7x,3x/6x,4x/5x,,,,,{2}B1/B2/B3/B4/B5/B6/B7/B8/Cf,
{8}5/7-4[8:1],4,3<8[4:1],2,1h[4:1]/3,,,26,
{4}2xq8[8:1]/6xp8[8:1],2xp4[8:1]/6xq4[8:1],,B1/B2/B6/B7/Cf,
{8}8-4[8:1],,3<8[4:1],2,1h[4:1]/3,,,26,
26,{16}3,4,2,,6,5,{8}7,E2/E6,E4/E8,,
56,,34,2,1,8,1-3[8:1],8-4[8:1],1x-5[8:1],8x-6[8:1],1x>8[4:1],8x,1x,,B1/B8,,
27,,56,4,23,1,78,6,45,{16}2,1,3,,7,8,{8}6,3b/8b,1b/6b,,
2-5[8:1]/4,5,6>1[4:1],7,6/8h[4:1],,,37,
{4}3xq1[8:1]/7xp1[8:1],3xp5[8:1]/7xq5[8:1],,B2/B3/B7/B8/C,
{8}1-5[8:1],,6>1[4:1],7,6/8h[4:1],,,37,
37,{16}6,5,7,,3,4,{8}2,E4/E8,E2/E6,,
34,,56,7,8,1,8-6[8:1],1-5[8:1],8x-4[8:1],1x-3[8:1],8x<1[4:1],1x,8x,,B1/B8,,
27,,34,5,67,8,12,3,45,{16}7,8,6,,2,1,{8}3,1b/6b,3b/8b,,
8,{32}B1,C,B5,,{8}7,{32}E3,B3,B4,,{8}8,{32}B1,C,B5,,{8}7,{32}E3,B3,B4,,
{8}8,{32}B1,C,B5,,{8}7,{32}E3,B3,B4,,{16}6b,,1,8,1,,78,,
{8}1/8-4[8:1],,2<6[8:1],2,5-1[8:1],5,2>6[8:1],2,8,8,
{16}2,1,4,5,8,7,{8}1x/6x,3x/8x,,
1,{32}B8,C,B4,,{8}2,{32}E7,B6,B5,,{8}1,{32}B8,C,B4,,{8}2,{32}E7,B6,B5,,
{8}1,{32}B8,C,B4,,{8}2,{32}E7,B6,B5,,{16}3b,,8,1,8,,12,,
{8}1-5[8:1]/8,,7-4[8:1],7,2-5[8:1],2,6<3[4:1],3,{4}3b/6b,,
B2/B4/B6/B8,B1/B3/B5/B7,{2}E3/E7/Cf,
{4}2/7h[4:1],4h[4:1],{16}5,,2,3,4,,7,6,5,4,5,,{4}27,
{8}5,46,3,24,1h[4:1],8,8,{16}7,6,5,,2,3,4,,{8}8-4[8:1],8,B3/E3,B1/E2,,
45,{16}6,5,8,,3,4,{8}1-4[8:1]/5-8[8:1],37,,,
3-8[8:1]/7-4[8:1],15,,,{16}5,4,5,,{4}27,
{16}45,,3,4,1,,6,5,{8}8h[4:1],3,2,{16}1,8,1,,
{24}2x,3,4,8x,7,6,{8}15,3b/7b,1b/5b,
{1}B2/B3/B6/B7/Cf,,,,,,,,,,,,,,,
E
Re:MASTER
- 注:ユメヒバナのBPMは公式は152としていますが、自然数BPMは正しくは151です。その方が合うのでご活用ください。 -- 嵐雅 (2020-12-29 21:01:11)
最終更新:2026年06月28日 20:50