アットウィキロゴ

おちゃめ機能

アーティスト ゴジマジP

BPM EASY BASIC ADVANCED EXPERT MASTER Re:MASTER
150 2 5 8+ 9 13+ -

EXPERT MASTER Re:MASTER
譜面制作者 譜面-100号 mai-Star -

EASY

(150){1},,,,
1,2,3,4,5,6,7,8,1-4[2:1],,
7,7,6,6,7,7,8,{2}8,8b,
{1}
1h[2:1],1,2h[2:1],2,
3h[2:1],3,4h[2:1],4-1[2:1],{4},,,
{1}8,7,8,1,1,{4}2,{1},1b/8b,1,1,2,
{2}1,1,{1}8,8,7,8b,
{4}
1,1,,,2,2,,,
3,3,,,4,4,,,
{1}3,2,1,8,7h[1:1],
{2},8b,{1},,,,E

BASIC

(150){1},,,{8},,,2/7,
{2},
2,7,2,7,4/6,3/5,2h[4:1],7h[4:1],
2/7,2/7,4/6,3/5,
{4}5,4,5,4,{1}3-6[4:1],2/7,,
{2}2,7,2h[2:1],,8,1,3/4,5/6,
{4}6,7,,,3,2,,,7,2,,,,2,7,1/8,
{2},,
8h[4:1],1h[4:1],1/8,4/5,,2b,
3/6,3/6,7-2[2:1],,,,
{4},5,4,5b,,4,5,4,,5,6,5,,3,4,3,,,2b,,,
4,5,4,,5,6,5,,3,4,3,
{2}1b,,
2,7,2,7,4/6,3/5,2h[4:1],7h[4:1],
2/7,2/7,4/6,3/5,
{4}5,4,5,4,{2}3-6[4:1],,2/7,
7,2,4/5,2/7,,2b,7b,{4}3b,3b,,,,,4/5,,2,2b,,,,3/8,,,,,,,,,1,
{1}2b/7b,,,,E

ADVANCED

(150){4}
3,4,3,4,6,5,6,5,3,6,3,6,{16}2,,,7,,,1b/8b,,
{4},,
3,1/8,6,1/8,2,1/2,7,7/8,4,2/7,5,2/7,3/4,3b/4b,5/6,5b/6b,
6,1/8,3,1/8,4,2/7,5,2/7,3,4/5,6,4/5,1^6[2:1]/5^2[2:1],,,,
1h[4:7],2,3,4,5,6,7,8b,
1h[4:1],2,8h[4:1],7,2h[4:1],1,7h[4:1],8,3h[4:1],4,6h[4:1],5,4,5,3,6,
7h[4:1],6,2h[4:1],3,8h[4:1],7,1h[4:1],2,8h[4:1],1,1h[4:1],8,
6h[4:1]/7h[4:1],,1h[4:1]/2h[4:1],,
4,5,4,4/5,3,6,3,4/5,3,4,3,3/4,6,5,6,5/6,3,5,4,6,3h[4:1],,8h[4:1],,
1-4[8:1],,8-5[8:1],,3,6,4,5b,
3/4,3/4,5/6,5/6,3/4,5/6,3/4,5/6,
3/4,3/5,5/6,4/6,3/4,3/4,5/6,5/6,
3,6,4,5,4,6,3,5,3,4,6,5,{16}3,,,5,,,8b,,
{4},,
3,1/8,6,1/8,2,1/2,7,7/8,4,2/7,5,2/7,3/4,3/4,5/6,5/6,
6,1/8,3,1/8,4,2/7,5,2/7,3,4/5,6,4/5,1^6[2:1]/5^2[2:1],,,,
2/7,2,1,2/1,8,7,8,7/8,2,7,2,4/5,3,6,3,1/8,
1-5[8:1],,8-4[8:1],,
2-6[8:1],,7-3[8:1],,
1h[2:1],,8,,2,1,8,7,6,3,5,4,5,3,6,
{1}4b,,,,E

EXPERT

(150){4}
4,5,4,5,
4,5,4,5,
4,5,4,5,
{16}8,,,3,,,72,,{4},,

3,27,6,27,
1,1,37,12,
46,78,35,12,
6h[4:1]/2,2,3h[4:1]/7,7,
2h[4:1]/1,8,7h[4:1]/8,1,
46,78,35,12,
6h[4:1],3h[4:1],4h[4:1],5,
2-5[2:1]/6-1[2:1],,,,
2b/7b,,,,
4h[4:1],5h[4:1],4h[4:1],5h[4:1],

2h[2:1],4,7h[2:1],5,
2h[1:1],4,6,4,
7,4,2,5,
3h[4:1]/4h[4:1],,5h[4:1]/6h[4:1],,
6h[4:1],5h[4:1],3h[4:1],4,
3h[4:1],4h[4:1],6h[4:1],5,
6,4,5,3,
4h[4:1],1h[4:1],7,36,

5h[4:1],4h[4:1],5h[4:1],4h[4:1],
7h[2:1],6,2h[4:1],3,
1h[4:1]/7h[4:1],,3h[4:1]/5h[4:1],,
1,1,1,,
26,4,37,5,
3-6[2:1]/7-2[2:1],,,,
8,,5,4,
56,34,56,3b,

4,5,34,56,
4,5,34,56,
4,5,34,56,
34,34,5h[4:1]/2,2,
4,5,34,56,
4,5,34,56,
34,56,34,56,
{16}7,,,4,,,1b,,{4},,
3,27,6,27,
1,1,37,12,
46,78,35,12,
6h[4:1]/2,2,3h[4:1]/7,7,
2h[4:1]/1,8,7h[4:1]/8,1,
46,78,35,12,
6h[4:1],3h[4:1],4h[4:1],5,
2-5[2:1]/6-1[2:1],,,,
2b/7b,6-2[4:1],,3-7[4:1],
,,36,1^4[4:3]/8^5[4:3],
,,,,
7h[4:1]/1,1,2h[4:1]/8,8,
8^5[8:1],,,4-8[4:1]/5-1[4:1],
,,4h[4:1]/5h[4:1],,
6h[4:3]/2,2h[2:1],,,
4,1b/7b,4,4,
4h[4:1],5h[4:1],4h[2:1],5,
5h[4:1],4h[4:1],{8}8,3,{4}6b,
{1},,
E

MASTER

(150){16}
3,,3,,3,,6,6,,4,5,,3,,6,,
4,,4,,4,,5,5,,3,6,,4,,5,,
3,,3,,3,,6,6,,3,4,,6,,5,,
12,,,78,,,1b/8b,,,,2,,2,,8,,

7,,7,,1,8,1,8,,,3,,3,,5,,
6,,6,,4,5,4,5,,,7,,7,,6,,
3,,3,,2,7,1,8,,,1,,1,,1,,
78,,,,38,,,,12,,12,,1b/6b,,,,
1,,8,,1,7,8,2,,,6,,5,,6,,
3,,4,,3,5,6,4,,,6,,5,,4,,
3,,4,,5,6,4,3,,,2,,1,,8,,
7,,25,,1^6[4:1]/5^2[4:1],,,,,,,,,,,,
2b/7b,,,,8,,,1,,2,3,,4,,,,
5,,6,,5,,,4,,7,2,,18,,,,

{8}
1h[8:3],2,3,2,8h[8:3],7,6,7,
2h[8:3],3,4,3,6h[8:3],5,4,5,
2h[8:3],7,6,7h[8:3],2,3,2h[8:3],6,
5,6h[8:3],3,4,3h[8:3],7,6,7,
8,5,8,5,7,6,7,6,
6-3[8:1],,,4,4/2-7[8:1],,,1,
1,2,3,4,4,3,2,1,
34,,78,,12,,5b/6b,,

{16}
2,2,1,,2,,18,,7,7,8,,7,,28,,
3,4,6,,3,,36,,4,4,5,,4,,45,,
4,4,5,,4,,35,,3,4,6,,3,,46,,
3,4,4,,3,,34,,6,6,5,,6,,56,,
8,7,5,,8,,5,,7,7,6,,7,,6,,
3-8[8:1],8,8,,,,7,,7-4[8:1],4,4,,,,3,,
{8}1,2,3,4,5,6,7,8,
34,,78,,12,,2b/7b,,

2h[8:3],7,6,7h[8:3],2,3,2h[8:3],6,
5,6h[8:3],3,4,3h[8:3],7,6,7,
1h[8:3],2,3,2,8h[8:3],7,6,7,
2h[8:3],3,4,3,6h[8:3],5,4,5,
{16}
2,1,2,1,8,1,8,1,8,7,8,7,18,,,,
6,5,6,5,4,5,4,5,4,3,4,3,45,,,,
3,6,4,5,3,6,4,5,3,4,6,5,36,,,,
2b/3b,,,4b/5b,,,1b/8b,,,,1,,1,,4,,

4,,2,,3,2,3,2,,,8,,8,,5,,
5,,7,,6,7,6,7,,,2,,7,,1,,
8,,1,,8,7,2,1,,,3,,4,,5,,
78,,,,38,,,,12,,12,,1b/6b,,,,
4,,5,,4,5,4,5,,,2,,6,,3,,
7,,3,,2,6,3,7,,,1,,5,,4,,
8,,2,,1,5,4,8,,,3,,5,,6,,
4,,15,,1^6[4:1]/5^2[4:1],,,,,,,,,,,,
1b/8b,,,,,,7,2,7,,2,,1,8,1,,
{8}4,5,3,6,2,7,1,8h[8:5],
2,3,2,3,7,6,7,6,
3,4,6,5,{16},4,5,,,,4,5,
{8}6,7,7-2[8:1],2,,1,8,7,
6,5,4,3,,8,2,28,
,2b/8b,2b/8b,,,,,{16}4,5,
{8}46,2b/8b,2,7,,2,7,,
{16}3,,,,6,,,4,,5,4,,5,,,,
2,,7,,2,,,7,,,1,,2b/7b,,,,
{1},,
E

Re:MASTER


  • (150){1} ,,,,1,2,3,4,5,6,7,8,1-4[2:1] ,,7,7,6,6,7,7,8, {2}8,8b,1h[2:1],,1,,2h[2:1],,2,,3h[2:1],,3,,4h[2:1],,{1}4-1[2:1] ,{4},,,{1}8,7,8,1,1,{4}2,{1},1b/8b ,1,1,2,{2}1,1,{1}8,8,7,8b, {4}1,1,,,2,2,,,3,3,,,4,4,,, {1}3,2,1,8,7h[1:1],{2},8b, E -- EASY (2013-08-09 11:52:45)
名前:
コメント:

タグ:

+ タグ編集
  • タグ:
最終更新:2026年10月03日 22:33