BASIC
ADVANCED
EXPERT
MASTER
(190)
{1}3b<2[8:26]/6b,,{4}5h[2:1],,,5-8[2:1],,,,3x/6x,
45,57,45,24,{16}3x,4x,3x,4x,{12}3x,7x,5x,6x,{6}1x,1x,1x,
1x,{16}1hx[4:1]/6x,5x,4x,3x,{4},{16}7x,6x,5x,4x,
{8}2z6[4:1],,8x,8x,{4}7x-3[8:1],1b,
{8}2h[1:1]/4,,,4,,4,,4,6h[1:1],,,5,,5,,5,
3h[1:1],,,4,,4,,4,7h[8:7],,,5,,5,,5,
3b/6,,5,5,4,6,5,7,2b/8,,3,1,2,8,1,7,
1b/6,,24,3,57,6,1x/5hx[4:1],,
3h[8:1],4h[8:1],1h[8:1],8h[8:1],5h[8:1],6,2b/7b,,
3,2,3,4,3,2,3>6[4:1],5,4,4,5-8[8:1],5,4-1[8:1],4,7x,,
6,7,6,5,6,7,6<3[4:1],4,5,5,4-1[8:1],4,5-8[8:1],5,2x,,
18,27,36,5,34,2,3>6[4:1]/4,5,4,4,5-8[8:1],5,4-1[8:1],4,7x,,
56,7,56,4,56,7,5/6-2[8:1]*-8[8:1],4,6x,,
{16}1x-5[8:1],1x,1x,1x,{4}1x,3b-6[8:1]/7b-2[8:1],
3x/7x,{8}56,7,56,4-2[8:1],4,5-1[8:1],5,2-7[8:1],2,5,5,5,{16}3,4,2,5,
{8}3,3,{16}6,5,7,4,{8}6,6,{16}3,4,2,5,
{8}3h[8:1],7,3h[8:1],4,3h[8:1],8,3h[8:1],4,
25,3,46,7,18,2-6[8:1],4,2,8-4[8:1],1,8,1,26,3,4x/8x,,
{16}2,3,4,5,6,7,8,1,6,5,4,3,2,1,8,7,
{4}2/6-2[8:1],1v3[8:1]*s5[8:1]/6,1b,2x/6x,
{8}7-2[8:1],7,{4}3-6[8:1],7-2[8:1],3-6[8:1],7-2[8:1],4,{8}57,6,24,3,
{8}8-5[8:1],8,{4}4-1[8:1],8-5[8:1],4-1[8:1],8-5[8:1],4-2[8:1]*-6[8:1],,{8}1x,1x,
{8}7^2[8:1],7,{4}3^6[8:1],7^2[8:1],3^6[8:1],7^2[8:1],4,{8}57,6,24,3,
{8}8^5[8:1],8,{4}4^1[8:1],8^5[8:1],4,{8}18,27,3v1[8:1]/6v8[8:1],45,36,,2b/7b,,
{4}4/5h[4:1],1b,3/7-5[8:1],4/7-3[8:1],2/7-5[8:1],47,
{8}24,3,57,6,{16}3,4,3,4,2h[8:1]/5h[8:1],,,4h[8:1]/7h[8:1],,,15,,{8}37,24,
{16}2h[8:1]/4h[8:1],,,5h[8:1]/6h[8:1],,,2h[8:1]/3h[8:1],,,4h[8:1]/8h[8:1],,,26,,26,37,
{4}4/8<3[2:1],3,2,1,1>6[2:1]/5,6,7,8,{16}8,1,8,1,7,2,7,2,
{32}8,1,2,3,4,5,6,7,8,1,2,3,4,5,6,7,{4}1-6[8:1]/8-3[8:1],1^4[8:1]/8^5[8:1],1b/8b,
2z6[8:3]/7s3[8:3],,,{8}B2/E3,B7/E7,B4/E4,B5/E6,Ch[8:3],,,8,{2}8-4[8:1]*s4[8:1],
{4}2/6h[4:1],{16}E4,B4,B5,E6,{4}7h[4:1],{16}E2,B1,B8,E8,
{8}B6/E7,B2/E3,B4/E5,C,18,27,{4}3s7[8:3]/6z2[8:3],,,
{8}B1/E1,B5/E5,B3/E3,B7/E7,C,,{16}E8,B8,B1,E2,{4}3h[4:1],{16}E7,B6,B5,E5,
{4}1b,2b,3b,4bp2[2:1],4^7[16:4],,,1x<2[1:2]/8x,{1},,{4}Ch[4:3],,,2>1[4:3],{1},
{4}6h[4:5],5,,5,,5,,3x/6x,{8}3,4,5,6,,6,,4,4,6,5,4,3,45,2b/7b,,
4h[4:1]/6h[4:1],,,24,,5/7<8[8:5],,Cf,{4},,2x,16,
{8}2h[4:1]/4h[4:1],,,57,,3>4[8:5]/8,,Cf,{4},,6x,25,
{8}4h[4:1]/6h[4:1],,,24,,5/7<8[8:5],,Cf,{4},,2x,15,
{8}56,,24,24,,57,,34,25,{16}6,5,7,,3,4,2,,{8}1b/8b,2b/7b,,
{4}2h[8:1]/4h[8:1],5h[8:1]/7h[8:1],2h[8:1]/3h[8:1],6h[8:1]/7h[8:1],
2h[8:1]/4h[8:1],5h[8:1]/7h[8:1],{8}3,24,1b/5b,,
{4}7h[8:1]/8h[8:1],1h[8:1]/2h[8:1],6h[8:1]/8h[8:1],1h[8:1]/3h[8:1],
2/6-2[8:1],1v3[8:1]*s5[8:1]/6,1b,3x/7x,
{8}2/4h[8:1],3,45,6,4h[8:1]/7,6,35,2,1/5h[8:1],2,36,7,5h[8:1]/8,7,1x/6x,,
47,36,25,14,{32}1,2,3,4,5,6,7,8,1,2,3,4,5,6,7,8,
{4}1b/5h[2:1],,4,1b/8b,
{8}2v5[8:1]/6,5,2,8V64[4:1],,4v6[8:1]/8,,1^6[8:1],
,1,4-7[8:1],8,1-5[8:1]/4,2,13,,
4/7v4[8:1],5,7,1V35[4:1],,1/5v3[8:1],,8,
{16}8,7,6,5,4,3,2,1,4,3,2,1,4,5,6,7,
{8}4/8b-4[8:1],,8,1V35[4:1],,1/5v3[8:1],,8^3[8:1],
,8,5,5,37,6,{16}1/5-1[8:1],2,3,4,
{4}5/8b,{16}2/6-2[8:1],3,4,5,{4}6/8b,{16}1/5-1[8:1],2,3,4,
{4}5/8b,{16}2/6-1[8:1]*v3[8:1],3,4,5,{4}6b,4b/8b,
{8}3/7-3[8:1],4,7,8V25[4:1],,5v3[8:1]/8,,8^3[8:1],
,8,5-2[8:1],1,5/8-4[8:1],7,68,,
2-6[8:1]/5,4,2,1V74[4:1],,4v6[8:1]/1,,1,
{16}1,2,3,4,5,6,7,8,5,6,7,8,5,4,3,2,
{4}1b/5<3[16:3],3/5b,5>7[16:3],5b/7,5<3[16:3],3/5b,5w1[8:1],5b,
{16}3h[8:1]/7h[8:1],,,2h[8:1]/4h[8:1],,,1h[8:1]/7h[8:1],,,5h[8:1]/6h[8:1],,,
{4}1b/8b,4>5[16:5]/5pp4[16:5],4x/5x,,2b/6b,
{8}7V51[4:1],8,1,2,3V15[4:1],4,5,6,7V51[4:1],8,1,2,3,4,5^2[8:1],6,
57,8^5[8:1],1,28,3^8[8:1],4,3/5-2[8:1],6,57,8-4[8:1],1,2z6[16:3]/8,,8,8b,,
2V48[4:1],1,8,7,6V84[4:1],5,4,3,2V48[4:1],1,8,7,6,6,35,46,
5/7h[4:1],,,57,4h[4:1]/8,,6,{16}6,5,
7h[16:3],,,5h[16:3],,,4h[8:3],,{8},1b,1b,,
1-3[8:1]/6,5,1-5[8:1]/6,7,1-3[8:1]/6,4,1-5[8:1]/6,7,
1-3[8:1]/6,4,16,7,46,5,34,2,78,16,
{16}2h[8:1]/4h[8:1],,,5h[8:1]/7h[8:1],,,{8}14,25,36,
{16}4h[8:1]/8h[8:1],,,2V47[8:1]/6V83[8:1],,,2b/6b,,{4},4b/8b,
1>7[16:3]/5,1b/7,1<3[16:3],1b/3,1>7[16:3],1b/7,1w5[8:1],1b,
{16}8,4,8,4,7,3,7,3,6,2,6,2,{32}5,4,3,2,1,8,7,6,
{4}1bqq8[4:1]/5b,8-3[8:1]*v5[8:1],,2b/6b,
{8}34,2,34,5,34,2,3>6[4:1]/4,5,4,4,5-8[8:1],5,4-1[8:1],4,6x,,
56,7,56,4,56,7,5/6<3[4:1],4,5,5,4-1[8:1],4,5-8[8:1],5,3x,,
47,6,35,2,18,7-3[8:1],5,7,1-5[8:1],8,1,8,{2}3-7[8:1]/7-3[8:1],
{8}24,3,57,6,{16}1b/5,2,3/8b,7,2b/6,3,4/7b,6,
{8}1b/5,37,{16}37,26,15,48,{8}37,15,{4}3-6[16:1]/7-2[16:1],3b/7b,
{1},,,,,,,,,,,,,,,,
E
Re:MASTER
- MASTER譜面のノーツの配置ミス、SLIDEの速度の修正を行いました。 -- けもがみ (2026-03-26 17:48:24)
最終更新:2026年04月11日 18:04