BASIC
ADVANCED
EXPERT
MASTER
(205)
{1}Chf[1:1],,{8},,B7/E8,,B2,C,E4,E5,
{1},{8},E3,E4,,B7,C,E6,E5,
{1},{8},,E1/E8,,B2,C,E4,E5,
{1},{8}B7,B5,,B2,B4,,,,
{8}7h[2:1],,,5,5h[4:1],,6,,4h[2:1],5,5,,6h[4:1],,5,,
2h[2:1],,,4,4h[4:1],,3,,5h[2:1],4,4,,3h[4:1],,4,,
{4}3,24,6,57,3,14,6,58,{8}2,2,4,4,5,5,7,7,
{12}3x,4x,2x,6x,5x,7x,Cf,,,,,,
{8}1/8-6[8:1],,2,2,8-5[8:1],1,2,,8-6[8:1],,2,2,8-5[8:1],3,2,,
{4}3/8-6[8:1],4,28,56,{8}1,2,34,5,6,7,28,,
1-3[8:1]/8,,7,7,1-4[8:1],8,7,,1-3[8:1]/6,,7,7,1-4[8:1],6,7,,
{4}1-3[8:1]/6,5,17,34,{8}8,7,46,3,{4}25,1w5[8:1],,,
3b/7b,4,{8}3/5-7[8:1],,2,2,5-8[8:1],3,2,,
{4}1/5-7[8:1],2,35,12,{8}3,4,56,7,18,2,{4}3p6[8:1],5b,,
3-8[8:1]/4,5,{8}3-8[8:1]/4,,6,6,3-8[8:1],5,6,,
{4}35,17,{16}8x,8x,8x,8x,{4}8b,27,{8}45,36,{2}2b/7b,
{4}3^6[8:1]/5,3,{8}7h[8:1],5,,45,,3,3h[4:1],,1,,
{4}2/8<4[4:1],4>8[4:1],8-4[4:1],4<8[4:1],8>4[4:1],3h[4:3],,,8b,
4/6^3[8:1],6,{8}2h[8:1],4,,45,,6,6h[4:1],,8,,
{4}1>5[4:1]/7,5<1[4:1],1-5[4:1],5>1[4:1],1q8[4:3],{1}Chf[1:1],
1h[2:5],{8},,B1/E2,,B2,C,E4,E5,{2},8h[1:2],{8},B8,E8,,B7,C,E6,E5,
{2},1h[1:2],{8},,B1/E2,,B2,C,E4,E5,{2},8,{8}B7,B5,,B2,B4,,,,
{4}1/8h[2:1],,6h[2:1],B7,4h[2:1],B5,2h[2:1],B3,
1h[2:1],B8,3h[2:1],B2,5h[2:1],B4,7h[2:1],B6,
{2}8>5[4:1],C,1<4[4:1],C,1>8[1:1]/8<1[1:1],,,B1/B8,
{8}4,6h[4:1],,5,5,7h[4:1],,6,6,8h[4:1],,5,5h[4:1],,1b,,
8,2h[4:1],,1,1,3h[4:1],,2,2,4h[4:1],,1,1h[4:1],,5b,,
3,4,2,2,6,5,7,7,3,4,1,1,6,5,8,8,2,5,4,7,{16}1,8,1,8,1,8,1,8,
{24}1x,2x,3x,4x,5x,6x,7x,8x,1x,2x,3x,4x,{2}5x/Cf,
{8}2/8>4[8:1],,7,7,,3,24,,1<5[8:1]/7,,2,2,,6,57,,
4/6>2[8:1],,8,8,,3,24,,3^6[8:1]/5,,1,1,,18,2b/7b,,
3<7[8:1]/8,,2,2,,6,57,,2/8>4[8:1],,7,7,,3,24,,
1<5[8:1]/7,,3,3,,6,5qq2[2:1]/7pp2[2:1],,{4},,,3b/7b,
8h[2:1],4,2,{8}17,17,3,4^7[8:1],2,2h[4:1],,1,1,,
38,,56,5/6q3[8:1],,1,1,,28,2-5[8:1]/8-4[8:1],,28,,3b/7b,,,
2,1,4,4,7,8,5,5,2,1,4,5,7,8,5,4,
2^7[8:1],2,5,,6-2[8:1],6,4,,3-7[8:1],3,5,,6^3[8:1],6,1,,{0.25}Ch[2:7],
{8}B2,E6,B1,E8,B3,B8,B4,B7,E2,B6,E3,E7,E4,B6,B2,E6,
B3/B4,B7/E7,B1/E2,B8/E8,B2/E3,B5/B6,B3/B4,B7/E7,,1b/8b,1b/8b,2b/7b,2b/7b,,Cf,,
2-5[8:1],2,6-1[8:1],6,2^5[8:1],2,6^1[8:1],6,2-6[8:1],2,8-3[8:1]*-5[8:1],8,{4},2b/6b,
{8}7-4[8:1],7,3-8[8:1],3,7^4[8:1],7,3^8[8:1],3,7-3[8:1],7,1,1,{4}1b/5b,3b/7b,
{8}2-7[8:1],2,5-2[8:1]*-8[8:1],5,{4},3b/7b,
{8}6-2[8:1],6,4-1[8:1]*-7[8:1],4,{4},2b/6b,
{8}3-6[8:1],3,8-3[8:1]*-5[8:1],8,{4},2b/6b,
35,B2/B6/C,17,{16}8x,8x,8x,8x,
{32}8x,1x/7x,2x/6x,3x/5x,{8}4x,{4}2b/6b,
{8}34,2,56,7,18,2,34,5,46,7,18,,{16}7,5,7,5,7,,2,4,2,4,2,,
{8}8,17,6,45,3,24,1,28,3b/7b,,
{16}2,1,2,1,3,,7,8,7,8,6,,2,4,2,4,1,,7,5,7,5,8,,2,1,3,,7,8,6,,
{32}1x,2x,3x,4x,5x,,,,8x,7x,6x,5x,4x,,,,
1,2,3,4,5,6,7,8,1,2,3,4,5,6,7,8,1,2,3,4,
{8}5b,,1b/8b,,4b/5b,2b/7b,,
{1}B2/B3/B6/B7/Cf,,,,,,,,,,,,,,,
E
Re:MASTER
(205)
{8}4hx[8:3],,,3h[8:3],,,2h[8:3],,,1,{4}1-6-3[2:1],,,
{8}1hx[8:3],,,2h[8:3],,,3h[8:3],,,4,{4}4-7-2[2:1],,,
{8}3hx[8:3],,,4h[8:3],,,5h[8:3],,,6,{4}6-1-4[2:1],,,
{8}5hx[8:3],,,6h[8:3],,,7h[8:3],,,8,{4}8,1b/6b,,
{8}25,2h[8:5]/5,,3,3,,4,5,6,7h[8:5],,6,6,,5,4,3,2h[8:5],,3,3,,4,5,6,7h[8:5],,6,6,,5,,
46,3,2,,35,6,7,,46,3,2,,35,6,7,,7-3[8:1],7,8-4[8:1],8,1-5[8:1],1,2,,{12}3,3,3,4,4,4,{2}Ch[4:1],
{8}8-5[8:1],1,2-5[8:1],,6-1[8:1],,4,3,2h[4:1],,1,8,71,6,58,,
1-4[8:1],8,7-4[8:1],,3-8[8:1],,5,6,7h[4:1],,8,1,28,3,41,,
8-5[8:1],1,2-5[8:1],,6-1[8:1],,4,3,2h[4:1],,1,8,71,6,58,,
1-4[8:1],8,7-4[8:1],,3-8[8:1],,5,6,7,7,,18,{16}7,8,{8}7,6-3[8:1],5,
4b,,{12}1,1,1,{8}7-4[8:1],8,1,2,3h[4:1],,2,1,82,7,68,,
4-1[8:1],5,6-1[8:1],,2-5[8:1],,8,7,6h[4:1],,5,4,35,2,1-4[8:1]/4-7[8:1],{2},
{8}3,3,26,,17,1h[4:1]/7,,2,3,42,,57,,48,37,26,15,
{2}8bh[8:3]/4bh[8:3],{8}15,2-7-1[4:1]/6-3-5[4:1],,26,{2},
{8}3,3,2h[4:1]/4,,1,{2}1-4[8:1]*-6[8:1],{8}5-8[8:1]*-2[8:1],5,,,1,2b/8b,,
3>6[2:1],,5,5,4,4,3,,8<3[2:1],,2,2,1,1,8,,
6,6,5/7h[4:1],,8,{2}8-5[8:1]*-3[8:1],{8}4-1[8:1]*-7[8:1],4,,,8,17,26,
3>6[2:1],,5,5,4,4,3,,{16}4,5,6,7,84,3,2,1,{2}84,
{1}2bhx[2:3]/Chf[2:15],,3V17[4:5],,8h[2:3],,1-4[4:3],{2},1b,
{8}3,3h[8:3],,B4,B2,,,7,6,6h[8:3],,B5,B7,,,2,3,3h[8:3],,B4,B2,,,7,6,6h[8:3],,B5,B7,,18,,
2,2h[8:3],,B1,B3,,,6,7,7h[8:3],,B8,B6,,,3,2,2h[8:3],,B1,B3,,,6,7,7h[8:3],,1,{2}2b,
{8}6,6-4[8:1],,3,3,2-4[8:1],,5,5,6,{4}6h[4:1],5h[4:1],4h[4:1],
{8}3,3-5[8:1],,6,6,7-5[8:1],,4,4,3,3h[4:1],,4,,45,,
6,{4}6-4[8:1],2-4[8:1],7-5[8:1],3-5[8:1],8-5[8:1],{8}3,3,,24,,
{16}5,3,5,3,5,3,5,3,6,2,6,2,6,2,6,2,7,1,7,1,7,1,7,1,{12}6b,5x,4x,3x,2x,1x,
{8}8x-4-6[4:1],,28,3V15[4:1],,37,8,,7x-3[8:1],,27,1,,15,26,,
4x-8-2[4:1],,48,7-3[8:1],,73,{4}4,58,12,18,7b/8b,
1x-5-3[4:1]/2x,{8}17,6V84[4:1],,26,1,,2x-6[8:1],,27,8,,48,37,,
1x/5x-1-7[4:1],,25,3,,56,56,,{16}4,3,2,5,6,7,4,3,2,5,6,7,
{32}1xpp4[2:1]*qq6[2:1],2,3,4,5,6,7,8,{4}1x,,,{8}37,2,
15,1^3[8:1]/5^7[8:1],,15,,,48,,8V26[4:1],3-5[8:1],8,3,,4,3,25,
1,8V25[4:1]/4V61[4:1],,84,,,{16}48,37,26,15,
{8}8-3[8:1]/4,,4-7[8:1],4,2-7[8:1],2,6-3[8:1],6,8,1,2q3[4:1]b/4,,{16}25,6,7,8,{4}1,
1/5>1[8:1],57,8/4<8[8:1],42,5,{8}58,47,36,25,1>8<1[4:15]b/4,,
1b/8b,,{1},Chf[4:3],,{4}B4,C,B8,
{8}3hx[8:3],4,4,5h[8:3],4,4,3h[8:3],4,4,6h[8:3],4,4,
2h[8:3],4,4,7h[8:3],4,4,1h[8:3],4,4,7h[4:1],8,8,,
7b/8b,3b/4b,1b/2b,5b/6b,,37,,
4xv7[8:1]/5x,{16}3,4,{8}3,1,6h[4:1]/8,,5,4,5v2[8:1]/3,{16}6,5,{8}6,8,3h[4:1]/1,,4,5,
4v7[8:1]/6,{16}3,4,{8}3,1,6h[4:1]/8,,5,4,53,{16}6,5,{8}6,45,4-2[8:1]/5-7[8:1],,4b/5b,,
8xv3[8:1]/1x,{16}7,8,{8}7,5,2h[4:1]/4,,1,8,1v6[8:1]/7,{16}2,1,{8}2,4,7h[4:1]/5,,8,1,
26,26,37,37,48,{16}1,5,{8}1,48,3-8[8:1]/7-4[8:1],,37,,15,26,3b/7b,,
{16}6,4,6,4,{8}3bV17[4:1]/7b,,7,6,5,{4}4x<8[4:1],8>4[4:1],4<8[4:1],{8}8,2,{4}4-7[8:1],
3/4-1[8:1],4-8[8:1]/5,3/4<3[8:3],46,{8},7,8b/5b,,26,26,,
{16}1-6[8:1]/7,2,3,4,51,,4-7[8:1],3,2,1,84,,1-6[8:1],2,3,4,51,,4-7[8:1],3,2,1,84,,1-6[8:1],2,3,4,{4}51,
{16}4,5,4,5,3,6,3,6,{32}2,3,4,5,6,7,8,1,2,3,4,5,6,7,8,1,2,3,4,5,
{8}6b,,4b/8b,,2b/6b,8b-3[4:11]*-5[4:11],,{1}8,,,1h[4:3]/7-3>4[2:1]b,,,,E
- Re:MASTERを追加しました。修正等ありましたらよろしくお願いします。 -- けもがみ (2026-01-04 15:07:24)
最終更新:2026年03月30日 21:49