|
EXPERT |
MASTER |
Re:MASTER |
| 譜面制作者 |
サファ太 |
シチミヘルツ |
- |
BASIC
(165.0){1},
{1}1-4[4:7],,,
{1}8,
{1}8-5[4:7],,,
{1}1,
{2}1,1,
{2}2,2,
{2}3,3,
{2}4,4,
{4}5,5,5,,
{4}6,6,6,,
{4}7,7,7,,
{2}1/8,1/8,
{1}1b/8b,
{1}B2,
{1}B4,
{1}B8,
{1}B6,
{1}B7,
{1}B5,
{1}B1,
{1}B3,
{1}5h[2:1],
{1}4h[2:1],
{1}6h[2:1],
{4}5,5,5/6,,
{1}4h[2:1],
{1}5h[2:1],
{1}3h[2:1],
{4}4,4,3/4,,
{1}2h[2:1],
{1}8h[2:1],
{1}1h[2:1],
{4}7,7,7/8,,
{2}1,1,
{4}8,8,8b,,
{1}7h[2:1]/8h[2:1],
{1}5h[2:1]/6h[2:1],
{4}4,4,3,3,
{4}2,2,1/8,,
{1}E2,
{1}B2,
{1}B3,
{1}E4,
{1}E6,
{1}B6,
{1}B7,
{1}E8,
{2}8,8,
{2}7,7,
{2}6,6,
{2}5,5,
{4}4,4,4,,
{4}5,5,5,,
{1}Chf[1:1],,
{1}1h[2:1]/8h[2:1],
{1}1-6[4:3]/2-5[4:3],,
{1}7-4[4:3]/8-3[4:3],,
{1}5-2[4:3]/6-1[4:3],,
{1}3-8[4:3]/4-7[4:3],,
{4}1,1,2,,
{4}3,3,4,,
{4}5,5,6,,
{4}7,7,7/8,,
{4}8,8,7,7,
{4}6,6,4/5,,
{4}4,4,3,3,
{4}2,2,1b/8b,,
{2}1h[2:1],8x,
{2}1h[2:1],8x,
{2}8h[2:1],1x,
{2}8h[2:1],1x,
{2}1h[2:1],8x,
{2}8h[2:1],1x,
{2}1hx[2:1],8hx[2:1],
{2}1x,1b/8b,
{2}1,1,
{4}2,2,1/2,,
{2}3,3,
{4}4,4,4/5,,
{2}5,5,
{4}6,6,5/6,,
{2}7,7,
{4}8,8,1b/8b,,
{4},,1/8,1/8,
{4}2/7,2/7,3/6,3/6,
{1}4x-1[4:7]/5x-8[4:7],,,
E
ADVANCED
(165.0){1},
{1}3hx[2:7]/5hx[2:7],,,,
{1}4x>5[4:11],,,
{2},4/5,
{2}6h[2:1],5,
{4}6,6,5,,
{2}3h[2:1],4,
{4}3,3,3/4,,
{4}2,2,1,,
{4}7,7,8,,
{2}1h[2:1],8h[2:1],
{4}1,1,1/8,2/7,
{1}3b/6b,
{2}E5,B4,
{1}B3,
{2}E7,B7,
{1}B8,
{2}E3,B3,
{2}B4,E5,
{2}B5,B6,
{2}E7,B2/B7,
{1}Ch[1:1],
{4},,,1x-5[2:1],{1},
{4}6,6,7,7-3[2:1],{1},
{4}2,2,2x/8x,,
{1}1-4[2:1]*-6[2:1],
{4}5,5,3/5,,
{1}4-1[2:1]*-7[2:1],
{4}8,8,1/8,8/1>5[16:9],{1},
{4}6,6,7,7p3[2:1],{1},
{4}2,2,1x/7x,,
{1}8-3[2:1]*-5[2:1],
{4}4,4,3/5,,
{2}2h[2:1],8h[2:1],
{4}1,1/8,2x/7x,,
{1}3h[1:1],
{1}4h[1:1],
{1}5h[1:1],
{2}6,5/6,
{1}7h[1:1],
{1}8h[1:1],
{1}1h[1:1],
{2}2,2x/8x,
{4}1,1,2,2,
{4}3,4,3/5,,
{4}5,5,6,6,
{4}7,8,1/7,,
{4}8,7,6,5,
{4}4,3,2,1,
{4}7/8,7/8,1/2,1/2,
{4}1/8,1/8,2x/7x,,
{1}7-4[2:1]/8-3[2:1],
{4}2x/5x,2/5,2/5,,
{1}1-6[2:1]/2-5[2:1],
{4}4/7,4/7,4/7,,
{1}5-2[2:1]/6-1[2:1],
{4}3/8,3/8,3/8,,
{1}3-8[2:1]/4-7[2:1],
{4}1/6,1/6,1/6,,
{4}2/8,2/8,1b/7b,,
{4}8,7,5/6,5/6,
{4}4,3,2/5,,
{4}1,2,3/4,3/4,
{4}5,6,7/8,,
{8}1,,2,,3,3,3,,
{8}4,,5,,6,6,6,,
{4}7/8,7/8,1/2,1/2,
{4}1/8,2/7,3b/6b,,
{4}3h[4:1]/4h[4:1],,3/4,4/5,
{2}5h[4:1]/6h[4:1],4/7,
{4}7h[4:1]/8h[4:1],,7/8,1/8,
{2}1h[4:1]/2h[4:1],3/8,
{4}2h[4:1]/4h[4:1],,2/4,3,
{4}4h[4:1]/5h[4:1],,4/5,6,
{2}5h[4:1]/7h[4:1],4h[4:1]/5h[4:1],
{2}2h[4:1]/4h[4:1],1b/7b,
{8}8,8,8,,1/7,,1/7,,
{8}6,6,6,,5/7,,,,
{8}4,4,4,,3/5,,3/5,,
{8}2,2,2,,1/3,,,,
{8}2,2,2,,3x/4x,,5/6,,
{8}7,7,7,,5x/6x,,3/4,,
{8}1/2,1/2,1/2,,7/8,7/8,7/8,,
{8}1/8,1/8,1/8,,2b/7b,,,,
{8}4x/5x,,,,2,2,7,7,
{8}1,1,8,7,6,5,4,3,
{1}2h[1:2]/7h[1:2],,,
E
EXPERT
(165.0){1}B6/B7/Ch[1:1],
{8}8b,,,7,7h[8:3],,,5,
{8}5h[8:3],,,6,6h[8:3],,,3,
{8}3h[8:3],,,4,4h[8:3],,,2,
{4}2/4,3,5,7,
{8}8b/2h[8:3],,,4,4h[8:3],,,3,
{8}3h[8:3],,,6,6h[8:3],,,5,
{8}5h[8:3],,,7,7h[8:3],,,5,
{4}5/7,8,1/7,3/5,
{4}6b/2h[4:3],6,4,4,
{4}3/7h[4:3],3,5,5,
{4}6^3[4:1],,2,2/4,
{4}3^6[4:1],,7,5/7,
{8}6,6,2,2,4,4,1h[4:1],,
{8}5,5,3,3,8,8,5h[4:1],,
{8}7,7,4,4,5,5,2,2,
{16}2hx[4:1]/8hx[4:1],,,,,,,,1x/7x,,,2x/6x,,,3x/5x,,
{1}5b/3bp6[4:1],
{2}B4/E5,B7/E7,
{2}B3/E3,E1/B8,
{4}E2,C1,E4,E5,
{4}E6,C1,E2/E8,,
{2}B1/E1,B6/E7,
{2}B2/E3,B5/E5,
{4}E4,E2,E8,E6,
{4}E3,E1,E7,E5,
{1}B2/B3/B6/B7/Ch[1:1],
{4},,2/7,8h[4:1]/1>6[16:5],
{4},,7x,7/8,
{4}2/1-5[8:1],3>6[16:5],6x,,
{4}3/4-8[8:1],2>7[16:5],7x,,
{2}1-3[8:1]/8-4[8:1],1b,
{4}6/5-1[8:1],7V53[4:1],3x,,
{8}2,2,8/2V46[4:1],,6x,,,,
{4}7-3[8:1],3,1xs5[4:1],6,
{4}6,6/5-1[8:1],7,8x<3[16:5],
{4}3x,,2b,1/2,
{4}7/8-4[8:1],5<2[16:5],2x,,
{4}3/4-8[8:1],1>6[16:5],6x,,
{2}1-5[8:1]/8-6[8:1],8b,
{4}3/4-8[8:1],2V46[4:1],6x,,
{8}7,7,1/7V53[4:1],,3x,,,,
{4}2-6[8:1],6,8z4[4:1],,
{4}3,3/4-8[8:1],3,2,
{2}1b/7b,3,
{2}5/3h[1:2],5,
{2}4,4,
{1}Ch[2:1],
{2}7/2h[1:3],7,
{2}5,5,
{2}3,3,
{1}Ch[2:1],
{8}1b/8b,,3/4,2,1/7,,5/6,7,
{8}2/8,,2/4,1,7/8,,5/6,,
{8}1/7,,4/5,3,1/2,,4/5,6,
{8}7/8,,4/6,3/7,2/8,,1b/5b,,
{8}4/6,7,8,1,2/5,3,4/8,,
{8}3/5,2,1,8,4/7,6,1/5,,
{16}2,,2,,7,,7,,1,8,1,8,1,8,1,,
{4}2x/7x,4x/5x,C1f/B2/B6,,
{4}1-5[8:1]/7-4[8:1],,3x/6x,4/5,
{8}2h[8:1]/4h[8:1],,5h[8:1]/7h[8:1],,4x/5x,,3/8,3hx[4:1]/8hx[4:1],
{4},8/3-7[8:1],7b,6hx[4:1]/1x>6[16:5],
{8},,,,7h[8:3],,1,1b,
{8},2/8,2-5[8:1]/8-4[8:1],,,,3x/6x,,
{8}5h[8:1]/7h[8:1],,2h[8:1]/4h[8:1],,4x/5x,,1/6,1hx[4:1]/6hx[4:1],
{4},1/6-2[8:1],2b,3hx[4:1]/8x<3[16:5],
{4},,2h[4:1],1w5[4:1],
{2},3hx[4:1]/7hx[4:1],
{8}1b/8b,,4/6,3,1/2,,3/5,6,
{8}7/8,,1/2,3/8,4/7,,2/5,,
{8}4/6,,7/8,1/6,2/5,,1/2,3/8,
{4}4/7h[4:1],5h[4:1],4h[4:1],2,
{16}3,4,3,,6,5,6,,2,4,2,,7,5,7,,
{16}2,1,2,,7,8,7,,2,3,2,,7,6,7,,
{16}3,4,2,,6,5,7,,2,1,3,,7/8w4[4:1],,,,
{2},2b/6b,
{4}5/3h[4:1],4q1[4:1],2hx[4:3],,
{4}4,3q8[4:1],1hx[2:1],,
{4}7h[4:1],8q5[4:1],6hx[2:1],,
{4}5h[4:1],4h[4:1],3,2/5,
{4}4/6h[4:1],5p8[4:1],7hx[4:3],,
{4}5,6p1[4:1],8hx[2:1],,
{4}2h[4:1],1p4[4:1],3hx[2:1],,
{4}4h[4:1],5h[4:1],6,2x/7x,
{4}4/3h[4:1],2pp4[4:1],1hx[2:1],,
{4}2h[4:1],3pp5[4:1],4hx[2:1],,
{4}6h[4:1],7qq5[4:1],8hx[2:1],,
{4}7h[4:1],5,4/5,2b/7b,
{4}8/7h[4:1],6pp8[4:1],5hx[2:1],,
{4}6h[4:1],7pp1[4:1],8hx[2:1],,
{4}2h[4:1],3qq1[4:1],4hx[2:1],,
{4}3h[4:1],2h[4:1],1,1/8,
{16}4x/5x,,,,,,,,3,4,3,4,2,,7,8,
{16}7,8,6,,4,5,4,5,3,6,3,6,2,7,2,,
{1}B1/B8/Ch[1:2],,,
E
MASTER
(165)
{4}2x/7x,{16},,3,4,{4}3h[8:3],{16},,6,5,{4}6h[8:3],{16},,3,4,{4}2h[8:3],
{16},,6,5,{4}7,5h[4:1]/7,6,4/5h[4:1],3,2h[4:1]/4,1,28,3x/7x,
{16},,6,5,{4}6h[8:3],{16},,3,4,{4}3h[8:3],{16},,6,5,{4}7h[8:3],
{16},,3,4,{4}2,2/4h[4:1],3,4h[4:1]/5,6,5/7h[4:1],8,17,2x/6x,
{16}1,,3,4,{4}3h[4:1],{16}8,,6,5,{4}6h[4:1],{16}1,,3,4,{4}3,
{16}18,,6,5,7h[8:1],,3,4,2h[8:1],,7,8,6h[8:1],,2,1,3h[8:1],,
6,5,7h[8:1],,3,4,2h[8:1],,7,8,6h[8:1],,1,8,1,,2x/7x,,
3,4,3,4,2,5,2,5,1,6,1,6,8,7,8,7,2,1,2,1,3,8,3,8,4,7,4,7,5,6,5,6,
3h[8:1],,5,4,6h[8:1],,3,4,2h[8:1],,6,5,{8}7,18,
{4}2x/7x,15,{16}5h[8:1]/7h[8:1],,,2h[8:1]/4h[8:1],,,18,,{1}2b/7b,
{2}5<4[8:13],4h[4:1],3h[4:1],{4}1,1>7[2:3],{2}5h[4:1],6h[4:1],8h[4:1],{4}1,1>8[2:5],
6,5,4,2,1,8,7,5,4,3,2,1,57,24,{8}27,36,4qq1[4:3]/5pp8[4:3],45,{1},
{4}2x/7x,45,{16}3,4,3,,{4}2bV41[4:1]/6bV47[4:1],,,
{16}2x/6x,,3,24,,6,57,,2,1,3,8,4,7,5,6,4x/7x,,,,
3^8[8:1],4,2,4,{2}3^6[8:1],{16}3b/7b,,,,1x,1x,1x,1x,
1x,,7,68,,3,24,,B3/E3,,B7/E7,,B8,B2,B6,B4,{4}Chf[2:1],2-6[8:1],2b,
{8}18,27,{16}3,4,3,2x/5x,,7,7,,{4}1bs5[8:1]/5b,1x/6x<3[4:1],,,2x/7x,
{16}2,1,2,1,3x/8x,,6,57,,3,24,,7-3[8:1],8,7,8,{4}7pp2[4:1]*qq4[4:1],,,
{16}1x/5x,,6,57,,3,24,,7,8,6,1,5,2,4,3,{4}2x/5x,
{16}6^1[8:1],5,7,5,{4}6^3[8:1],,2b/6b,{16}8x,8x,8x,8x,
8x,,2,13,,6,57,,{8}B3/E3,B7/E7,{16}B2,B8,B4,B6,{4}Chf[2:1],7-3[8:1],7b,
{8}18,27,{16}6,5,6,4x/7x,,2,2,,{4}4b/8bz4[8:1],3x>6[4:1]/8x,,,2x/6x,
{16}7,8,7,8,1x/6x,,3,24,,6,57,,1x-4[8:1]*-6[8:1],1x,1x,1x,{4},
{2}3b/7b,6h[2:1],4h[2:1],2h[2:1],8h[4:3],{4}6,6>7[4:3],B4/B5/E5,B1/B8/E1,C,,
{2}2h[2:1],4h[2:1],6h[2:1],8h[2:1],2h[4:3],{4}4,4<3[4:3],B1/B8/E1,B4/B5/E5,C,,
36,{16}8h[8:1],,3,3,{4}4h[4:1],{16}1h[8:1],,6,6,
{4}5h[4:1],{16}8h[8:1],,3,3,{4}4,78,16,
{16}8h[8:1],,3,3,{4}4h[4:1],{16}1h[8:1],,6,6,
{4}5h[4:1],{8}8,12,34,56,78,16,
{16}2,1,3,8,4,7,5,6,8,7,1,6,2,5,3,4,2,1,2,1,3,4,3,4,8,7,8,7,5,6,5,6,
3,3,4,4,5,5,6,6,7,7,8,8,{32}2x,3x,4x,5x,6x,7x,8x,1x,
{4}2x/6x,58,{16}2h[8:1]/4h[8:1],,,5h[8:1]/7h[8:1],,,18,,{4}2-5[8:1]/7-4[8:1],2x/7x,2b/7b,
{16}2x/6x,3x/7x,4x/8x,1x/5x,{4}2x-7[8:1]/6x-3[8:1],2<5[4:1]/6,26,
{8},2b/6b,,1/5h[4:1],2,3h[4:1],2,1,{16}4xpp8[2:1]/8x,3x/7x,2x/6x,1x/5x,
{4}4x/8x,1^4[8:1],1b,{8}78,16,,45,3,12,38,,{16}3x/7x,2x/6x,1x/5x,4x/8x,
{4}3x-6[8:1]/7x-2[8:1],3/7>5[4:1],37,{8},3b/7b,,4h[4:1]/8,7,6h[4:1],7,8,
{16}1x/5xqq1[2:1],2x/6x,3x/7x,4x/8x,{4}1x/5x,8^5[8:1],8b,
{8}26,3,48,7,2b/6b,,{16}B2,B8,B4,B6,E2,E8,E4,E6,{4}C,
{16}B7/B8/E8,,E2,B4,{4}B3/E3/E4,{16}B1/B2/E2,,E8,B5,{4}B6/E6/E7,
{16}B7/B8/E8,,E2,B4,{4}B3/E3/E4,{16}E2,B1,B8,E8,{4}C,
{16}B5/B6/E6,,E4,B1,{4}B2/E2/E3,B5/B6/E5/E7,{8}24,3,45,6,57,18,2b/7b,,
{16}7,8,6,1,5,2,4,3,1,2,8,3,7,4,6,5,7,8,7,8,5,6,5,6,1,2,1,2,4,3,4,3,
6,6,5,7,3,3,4,2,6,6,5,8,3,3,4,1,{4}2x/6x,15,{16}5h[8:1]/7h[8:1],,,2h[8:1]/4h[8:1],,,18,,
{4}2bq6[4:1]/7b,6>2[4:1],2<6[4:1],6,4q8[4:1],8>4[4:1],4<8[4:1],1,
3p7[4:1],7>3[4:1],3<7[4:1],7,1qq6[2:1],4,3,2b,
7/8>6[2:1],3,6,1,1<3[2:1],6,3,8,6/8^3[4:1],3^6[4:1],6^1[4:1],1^4[4:1],
4-8[4:1],8,{16}7x,6x,5x,4x,3x,2x,1x,8x,
{4}2b-6[8:1]/7b,2V48[8:3]/4,12,6,7-3[8:1],5/7V51[8:3],78,4,
3-7[8:1],1/3V15[8:3],34,8,6-2[8:1],8^3[8:1]*^5[8:1],8,2b/6b,
7^2[8:1],5/7V51[8:3],17,3,2^7[8:1],2V48[8:3]/4,28,7,
6^3[8:1],6V84[8:3]/8,46,3,2-4[8:1]*-8[8:1],2-6[8:1],2^5[8:1]/6^1[8:1],26,3b/7b,,
{16}2,1,2,1,{32}2b,3,4,,8b,7,6,,{16}3,4,3,4,{32}3b,2,1,,5b,6,7,,
2b,3,4,,8b,7,6,,1b,2,3,4,5,6,7,8,
{1}1b/5b>5[4:7]*>5[4:7],,,,,,,,,,,,,
E
Re:MASTER
最終更新:2022年10月01日 22:33