BASIC
ADVANCED
EXPERT
MASTER
(172)
{8}2h[8:7]/4,,4,4,,5,,6h[1:1],,,5,5,,4,,
2pp6[8:11],,,6,6,,7,,8h[8:5],{1},
{8}7h[8:7],,5,5,,4,,2h[1:1],,,3,
{4}3,5,6h[4:1],7h[4:1],8h[4:1],1h[4:1],{8}2pp5[8:5]*qq7[8:5],{1},
{4}4x/8x<4[2:1],3,2,1,8>4[2:1],5,6,7,
8x<4[2:1],E4,E3,E2,8>4[2:1],E6,E7,E8,
{8}5x/7x,7,78,7,67,7,17,7,3x/6x,3,31,3,34,3,38,3h[8:1],
{16}4x,3,5,2,6,1,7,8,{32}7,6,5,4,3,2,1,8,7,6,5,4,3,2,1,8,
{4}3xqq4[8:3]/7xqq8[8:3],,,C,{2}1b/5b,
{16}4/7b,,,2/5b,,,1b/8,,,,47,,6,5,,2,1,,,35,,,78,,
{4}1/6-1[8:1],2-5[8:1],{16}7h[16:3],,,3,,,{8}15,,E2,E3,E4,E8,E7,E6,,
{4}2-5[8:1],8-4[8:1],{16}3h[16:3],,,5,,,17,,,,25,,3,4,,7,8,,,46,,,12,,
{4}3-8[8:1]/8,7-4[8:1],{16}2h[16:3],,,6,,,48,,{8},34,2,6,7-4[8:1]/8-4[8:1],,7b/8b,,
{4}2^5[8:1],8-4[8:1],{16}4,,,26,,,17,,,,16,,7-4[8:1],8,,8,7,,,3,,,18,,
{4}2/7^4[8:1],1-5[8:1],{16}5,,,37,,,{8}28,,E4,E3,E2,E6,E7,E8,,
{4}7x^4[8:1],1-5[8:1],{16}5,,,37,,,28,,,,38,,2-5[8:1],1,,1,2,,,6,,,18,,
{4}2^5[8:1]/7,8-4[8:1],{16}4,,,26,,,{8}17,,56,7,18,{4}2-4[8:1]/7-5[8:1],2b/7b,
2hx[1:1],4,4,4,7h[1:1],5,5,5,1h[1:1],4,4,4,8h[4:1],6h[4:1],4h[4:1],2,
{8}12,2,23,2,28,2,24,2,78,7,67,7,17,7,57,7h[8:1],
{16}5,6,4,7,3,8,2,1,{32}2,3,4,5,6,7,8,1,2,3,4,5,6,7,8,1,{4}2b/5b<4[8:3],,,C,
2z6[8:1]/5b,{16},,,5,,45,,6,5,,47,,
{4}4x/7s3[8:1],{16},,,4,,45,,3,4,,25,,
{4}2z6[8:1]/5b,{16},,,5,,45,,6,5,,47,,26,,
3hx[8:1]/5hx[8:1],,,3hx[8:1]/5hx[8:1],,,4hx[8:1]/6hx[8:1],,,4hx[8:1]/6hx[8:1],,,4x/6x,,
{4}3z7[8:1]/8b,{16},,,6,,56,,3,4,,25,,
{4}1x/6s2[8:1],{16},,,3,,34,,6,5,,47,,
{4}3z7[8:1]/8b,{16},,,6,,56,,3,4,,25,,
{8}3-7[8:1],3,5-1[8:1],5,2-6[8:1],2,8h[48:11],,
{48}1b/7b,2x/6x,3x/5x,4x,,,,,,,,,{16}7,7,,6,,4x/5x,,3,4,,25,,
{4}2p4[8:1]/8x,{16}7,7,,6,,4x/5x,,3,4,,25,,
{4}1b/7q5[8:1],{16}2,2,,3,,4x/5x,,6,5,,47,,35,,
2hx[8:1]/4hx[8:1],,,2hx[8:1]/4hx[8:1],,,5hx[8:1]/7hx[8:1],,,5hx[8:1]/7hx[8:1],,,3x/6x,,
{8}1/5b,34,{16}7,5h[8:1],,6,4h[8:1],,5,3h[8:1],,4,2,,
{8}8,56,{16}2,4h[8:1],,3,5h[8:1],,4,6h[8:1],,5,7,,
{8}1b,35,{16}2,8,2,8,1,7,1,7,2,8,1,7,{1}Cf,
{4}3h[1:1]/5,4,4,4,6h[1:1],5,5,5,3h[1:1],4,5,6,{1}1^4[4:1]/7^4[4:1],
{4}5/7h[1:1],5,5,5,2h[1:1],4,4,4,7h[1:1],5,4,3,{1}2/8s4[2:1]*z4[2:1],
{4}1>5[2:1]/5,6,7,8,1<5[2:1],4,3,2,
1>5[2:1],E6,E7,E8,1<5[2:1],E4,E3,E2,
{8}2x/4x,2,12,2,25,2,28,2,3x/6x,6,68,6,56,6,16,6,
{16}4x,5,3,6,2,7,1,8,{32}1,2,3,4,5,6,7,8,1,2,3,4,5,6,7,8,
{4}1bpp8[8:3]/5bpp4[8:3],,,{16}4x/8x,37,26,15,
{4}4h[48:59]/8h[48:59],,,,,{48}3b/7b,2x/6x,1x/5x,4x/8x,,,,,,,,,{8}26,{16}7,8,,3,4,,
{4}2^5[8:1]/6^1[8:1],26,{16}3h[8:1]/7h[8:1],,,1h[8:1]/5h[8:1],,,{4}3^8[8:1]/7,
{32}3x/8x,7,6,5,4,,,,{8}2x/6x,48,7,26,3,
{4}4/8-3[8:1],2-5[8:1]/8,{16}2/7V51[8:1],,,4,,,{4}2h[4:1],
{16}7,,7,5,,5,4,,4,2,,2,8,,
{4}3v8[8:1]/7-4[8:1],37,{16}2h[8:1]/6h[8:1],,,4h[8:1]/8h[8:1],,,{4}2/6^1[8:1],
{32}1x/6x,2,3,4,5,,,,{8}3x/7x,15,2,37,6,
{4}1-6[8:1]/5,1/7-4[8:1],{16}2V48[8:1]/7,,,6,,,{4}7h[4:1],
{16}2,,2,4,,4,5,,5,7,,7,1,,
{4}2-5[8:1]/6-1[8:1],26,{16}3h[8:1]/7h[8:1],,,1h[8:1]/5h[8:1],,,{4}3/7^4[8:1],
{32}4x/7x,3,2,1,8,,,,{8}2x/6x,48,7,26,3,
{4}8-3[8:1],2-5[8:1]/8,{16}2/7V51[8:1],,,3,,,{4}2h[4:1],
{16}7,,7,5,,5,4,,4,2,,2,8,,
{4}3-8[8:1]/7-4[8:1],37,{16}2h[8:1]/6h[8:1],,,4h[8:1]/8h[8:1],,,{4}2^5[8:1]/6,
{32}2x/5x,6,7,8,1,,,,{8}3x/7x,2v5[8:1]/8v5[8:1],46,2b/8b,,
{2}3h[2:1]/6,{16}4h[16:3],,,5h[16:3],,,6h[16:7],,
,,8,,,8h[16:3],,,7h[16:3],,,6h[16:3],,,5,,
{4}5h[4:1],2h[4:1],{16}3h[16:3],,,4h[16:3],,,{8}8h[4:1],,E8,B8,B1,E2,B2,B3,,
{2}6h[2:1],{16}5h[16:3],,,4h[16:3],,,3h[4:1],,
,,1,,,1h[16:3],,,2h[16:3],,,3h[16:3],,,4,,
{4}4h[4:1],7h[4:1],{16}6h[16:3],,,5h[16:3],,,{8}4h[4:1],,1,8,7,
{1}5bqq5[4:1]/6bpp6[4:1],,,,,,,,,,
E
Re:MASTER
最終更新:2026年04月10日 20:20