| アーティスト |
Nothing But Requiem (feat.Aikapin & Chiyoko) |
BASIC
ADVANCED
EXPERT
MASTER
(190)
{4}5/6h[1:1],,4,3,3h[4:3],,4,5,4/6h[1:1],,3,3,E2,C,E5/E7,,
3h[1:1]/4,,4,5,6h[4:3],,5,4,3h[1:1]/5,,6,6,E8,C,E3/E5,,
3h[4:3]/6b,6,6,6,6x/Ch[4:3],6,6,6,
1hx[4:3]/6,6,6,6,6x/Ch[2:1],{8}E8,E7,{4}E6,27,
{8}8x,8,4,4,6,6,2,2,8x,8,1x,1,{16}8x,1,8,1,7x,2,3,6,
{2}5hx[2:1],4h[2:1],Ch[2:1],1-5[8:1],
{8}6b,,46,4,56,,36,3,26,,4qq4[2:1]/6,,6x,,6,6,
6x,,56,5,46,,16,,4h[4:1]/6,6,6,,36,,{16}6,5,6,,
{8}3x/6x,,35,4,35,,3/4h[4:1],3,3,,3/5pp5[2:1],,3x,3,3,3,
3x,,27,{16}3,4,3,,3,7,3,,3,4,3hx[16:3],,,4hx[16:3],,,5x,,{4}3x/6x,4^1[2:1]/5,
6h[1:1],,,E1,C,E5,E6,E4,{2}3h[2:1]/6,4h[2:1],B2/B3/E3,{8},,4,5,
{1}3h[1:1]/6h[4:3],{4}E6,C,B7,E1,B2,E2/B3,B6,E6/B7,Ch[2:1],,,{8}8,8,
{1}8xqq8[1:1],3qq3[1:1],7qq7[1:1],4qq4[1:1],
{2}6^1[4:3],C,2^5[4:3],C,{4}B7,B6/E8,B3,B2/E4,C,{8}1,1,8,,27,,
{4}3h[4:1]/5h[8:3],,4/6h[4:1],4,3h[8:3]/5h[4:1],,4h[4:1]/6,6,
2h[8:3]/5h[4:1],,3h[4:1]/4,4pp4[8:5],2,,,{8}3,3,
5h[4:1],,4,6h[8:3],4h[4:1],,,,4h[4:1]/5,,5,3h[8:3],5h[4:1],,,,
{4}B6,B7/E6,B3,B2/E4,Ch[2:1],,,{8}1,8,
{4}2q5[4:3]/7,,5,6,7p4[4:3],,4,3,
2h[4:1],3h[4:1],4h[4:1],5q5[8:5]*qq5[8:5],,,,{8}6,4,
{4}5h[8:3],4,3/5h[2:1],3^8[8:3],,6^3[8:3],1,2pp6[4:3],
{1}8h[1:1],{4}7h[4:1],6h[4:1],5h[4:1],4h[4:1],{0.25}Ch[1:3],
{1}E6/C,E2/C,E8/C,{2}4h[4:1]/5h[2:1],{8}4,5,36,,
{4}4h[4:1]/5xpp4[2:3],,4h[4:1],,E4,C,E3,E2,
1pp8[2:3]/8h[4:1],,8h[4:1],,E8,C,E7,E6,
28,68,46,24,{8}35,3,47,7,{16}1,8,1,8,2,7,3,6,
{2}4h[2:1]/5h[1:1],,Ch[2:1],8-3[8:1]*-5[8:1],
{4}2b/7b,3x-1[8:1]/7x^4[8:1],3x/7x,
{8}2,3,4/7-4[8:1],8,47,3,2-5[8:1]/4,1,25,,
{4}7x-5[8:1]/8x-5[8:1],7x/8x-2[8:1]*-3[8:1],8x,{8}4,6,
{4}3-8[8:1]/7v4[8:1],37,{8}15,2,37,,
{4}8x-4[8:1]*-6[8:1],8x-2[8:1],2x/8x,
{8}3,4,5/7-4[8:1],8,47,3,2-6[8:1],1,26,,
{4}8x-4[8:1],4x/8x,3x/6x,
{8}18,7,3-8[8:1]/6-1[8:1],45,36,,{16}27,36,45,,2b/7b,,,,
{8}1x^4[8:1]/5x-7[8:1],1x/5x,1x/5x,,2x/6x,,
7,6,2^5[8:1]/5,1,25,6,7^4[8:1],8,47,,
{8}1xv4[8:1]*v6[8:1],1x,1x,,3x/7x,,5,1,
{4}2^5[8:1]/6v1[8:1],26,{8}48,7,16,,
4x/7x,3x/8x,{4}1x-4[8:1]/2x-4[8:1],1x-6[8:1]*-7[8:1]/2x,1-5[8:1],
1w5[8:1],1,{8}37,37,1b/5b,,27,
{16}3,4,3,,3,1,3,,3,4,3,,34,,
2hx[8:1]/4hx[8:1],,,3hx[8:1]/5hx[8:1],,,5x/7x,,{8}3x^8[8:1]/7x^4[8:1],3x/7x,3x/7x,,
{1}B4/B8/Cf,,B2/B3/B6/B7/Cf,{8},,,
{32}E2,B2,B3,B4,{8}E5,7x,1x/7x,,
{1}B3/B4/B5/B6/Ch[2:1],B1/B2/B7/B8/Ch[2:1],
{8}1,1,28,28,{16}E2,B1,,B8,E8,E6,E5,E4,{4}Chf[4:3],,8-4[8:1],8b,
{8}2x,1x/2x,{4}3x-1[8:1]/8x-6[8:1],3x/8xw4[8:1],8x,
{8}1/6^1[8:1],5,16,2,3^8[8:1],4,38,,
{4}5xw1[8:1],5x,3x/7x,{8}18,{24}18,27,36,
{16}4x/5x,,,5x/7x,,,{8}2x/4x,1x-5[8:1]/8x-4[8:1],2x/7x,1b/8b,,
{8}1x/2x,3,23,3,3/4x,4,45,{16}6,5,{8}6x,47,4x/7x,25,2x/5x,
{16}4x,6x,4x,6x,4x,,B2,B8,B4,B6,B1,B7,B3,B5,E2,E8,E4,E6,C,,,,
{16},,1/2x,,,5x/7,,,3x/4,,,6x/8,,,4x/5,,
{1}2b/7b,B1/B8,C,{2}5h[4:1],
{1}4h[4:5]/5h[4:7],,,,,,,,,,
E
Re:MASTER
最終更新:2026年03月29日 15:42