アットウィキロゴ

STEEL TRANSONIC

アーティスト BlackY vs. WAiKURO

BPM BASIC ADVANCED EXPERT MASTER Re:MASTER
236 6 8+ 13 14 -

EXPERT MASTER Re:MASTER
譜面制作者 シチミヘルツ 小鳥遊さん -

BASIC


ADVANCED


EXPERT

(236)
{0.5}6^3[4:3],3^6[4:3],
{8}5h[4:1]/7h[4:1],,,4h[4:1]/6h[4:1],,,
3h[4:1]/5h[4:1],,,2h[4:1]/4h[4:1],,,18,,2/7h[2:3],,
{2}1h[4:1],2h[4:1],3h[4:1],{4}45,2b/7b,
5/6h[1:3],5,5,5,5,{8}4,4,4,,5,,
{4}3,4,2,3,45,{8}45,45,45,,3x/6x,,
{4}3h[4:11]/4,4,4,4,4,{8}5,5,5,,4,,
{4}6,5,7,8,1x/8x,1x/8x,2x/7x,,
5h[8:1]/6h[1:3],5h[8:1],5h[8:1],5h[8:1],5h[8:1],{8}4,4,4,,5h[8:1],,
{4}2h[8:1],4h[8:1],2h[8:1],3h[8:1],4h[8:1]/5h[8:1],{8}45,45,45,,3x/6x,,
{4}1h[8:1]/2h[4:5],1h[8:1],1h[8:1],1h[8:1],1h[8:1],{8}8,8,8,,2x/7x,,
{2}1h[8:3]/8h[8:3],1h[8:3]/8h[8:3],2b/7b,{8}1,1,8,8,
2,4,3,5,4,4,6,6,{4}5,46,3,24,
{8}7,7,5,5,6,4,5,3,4,4,{4}24,56,4x/7x,
{8}2,2,8,1,7,7,17,,{16}2h[16:3],,,3h[16:3],,,4,,7h[16:3],,,6h[16:3],,,5,,
{8}3h[4:1],,7,7h[4:1],,1,1,,8,8,1,8,2b/7b,,,,
7,7,5,5,6,4,5,3,{4}4,35,6,57,
{8}2,4,3,5,4,4,6,6,5,5,{4}57,78,1x/6x,
{8}7,7,1,8,2,2,28,,{16}7h[16:3],,,6h[16:3],,,5,,2h[16:3],,,3h[16:3],,,4,,
{8}6h[4:1],,1,1h[4:1],,8,{4}8,17,45,3b/7b,,
{0.5}1>7[2:3],8<2[2:3],{1}1^4[2:1],5^8[2:1],
{2}1-4[4:1],5-8[4:1],{4}1,1,2x/7x,,
56,56,57,6h[4:1],{8}5,5h[4:1],,7,{16}57,,,45,,,24,,
{8}3,3,3,,24,,3h[4:1],,4,4h[4:1],,2,{16}24,,,45,,,57,,
{4}57,6,57,6h[4:1],{8}8,8h[4:1],,7,{16}78,,,18,,,12,,
{8}8,8,8,,1,1,1,,{4}18,18,2x/7x,,
34,15,{8}2,3,3h[4:1],,4,4h[4:1],,3,{16}24,,,45,,,57,,
{8}6,6,6,,7,6,6h[4:1],,5,5h[4:1],,7,{16}57,,,45,,,24,,
{4}24,34,{8}2,3,3h[4:1],,1,1h[4:1],,2,{16}12,,,18,,,78,,
{8}1,1,1,,8,8,8,,{1}2/4h[1:1],
{16}1,2,3,4,5,6,7,8,1,2,3,4,5,6,7,8,
1,2,3,4,5,6,7,8,1,2,3,4,5,6,7,8,{0.125}1b/5b,
{2}6h[1:1],5,{8}4h[1:1],,,5,5,,,,
{2}6h[1:1],5,{8}3h[2:1],,,4,4,,,,
{4}4x/5x,,6,5,4,3,4,5,3x/6x,,4,5,6,7,8,17,
{1}2b-6[4:11]/6b-2[4:11],,,{2},{8}18,18,2b/7b,,
{4}1/2-5[8:1],1,7-4[8:1]/8,8,12,78,24,57,
7-4[8:1]/8,8,1/2-5[8:1],1,{16}8h[16:3],,,7h[16:3],,,{8}6,1,1,2b/7b,,
{4}1/2-5[8:1],1,7-4[8:1]/8,8,12,78,24,57,
8-6[8:1],1-5[8:1],8-4[8:1],1,{16}2h[16:3],,,3h[16:3],,,{8}4,8b,8b,2b/7b,,
{4}7-3[8:1]/8,2,2/8-4[8:1],1,78,12,57,24,
1/2-6[8:1],7,1-4[8:1]/7,8,{16}8h[16:3],,,6h[16:3],,,5,,1h[16:3],,,3h[16:3],,,4,,
{4}37,18,{16}5h[16:3],,,7h[16:3],,,8,,4h[16:3],,,2h[16:3],,,{8}1,7,7,1x/6x,,
{16}2h[16:3],,,3h[16:3],,,4,,{4}45,27,{16}1,8,1,8,1,8,1,8,{4}1b,2b/7b,
{1}4h[1:1]/5h[1:1],{4},B3/B6/Cf,18,27,
3^8[4:1],7,7^4[4:1],1,1h[4:1],8,36,1b,
6^1[4:1],2,2^5[4:1],8,{16}7h[16:3],,,6h[16:3],,,5,,{8}3,3h[4:1],,4,
4,,2,13,,7,68,,{4}4x/5x,2x/7x,1b/5b,3b/7b,
6^1[8:1],1,2^5[8:1],8,7^4[8:1],4,3^8[8:1],8,
{8}6,,3,24,,6,57,,{2}1h[8:3]/8h[8:3],2b/7b,
{4}4,34,5,56,{8}3,3,6,6,2,2,7,7,1,1,1,1,8,8,8,8,18,18,18,18,{2}2b/7b,
{4}56,56,{8}7,7,6,,{4}34,34,{8}2,2,3,,
{4}57,57,{8}8,8,7,,{4}24,24,{8}1,1,2,,
{4}56,7,34,2,57,8,24,1,{8}7,7,5,5,4,4,2,2,
8,8,6,6,4,4,2-6[16:1],,
{1}8b,,,,,,,,,,,,
E

MASTER

(236){4},,,
{4}1V36[4:3]/5V72[4:3],,,,,
{1}8x<1[4:11]/Chf[1:3],,,,
{8}3hx[4:1]/4hx[4:1],,,4hx[4:1]/6hx[4:1],,,
3hx[4:1]/5hx[4:1],,,4hx[4:1]/7hx[4:1],,,2x/5x,,4x/8x,,
{2}1b/5hx[1:1],2b,3b,{4}5-1[8:1]/4-8[8:1],4x/5x,
2b/7b,{8}6,4,6,5,56,,3,5,3,4,34,,56,,
24,,6,4,6,5,56,,3,5,3,4,3,5,4,6,
57,,3,5,3,4,34,,6,4,6,5,56,,45,,
57,,3,5,3,4,{4}34,4/5-1[8:1],7,{16}8,1,8,1,8b,,,,
{8}2,2,4,4,3,3,45,,7,7,5,5,{4}8-4[8:1],1,
{8}2,2,1,1,3,3,24,,56,,34,,12,12,3b/8b,,
7,7,5,5,6,6,45,,2,2,4,4,{4}1-5[8:1],8,
{2}4hx[8:3]/7hx[8:3],2hx[8:3]/5hx[8:3],
{16}4x/6x,,,3x/5x,,,4x/6x,,1,8,1,,{4}2b/7b,
{8}5h[4:1]/6,,4,4h[4:1],,3,3>7[2:1],,{4}6,6,6,45,
{8}3/4h[4:1],,5,5h[4:1],,6,6,,{4}3/7-5[8:1],3,3/4-8[8:1],3,
{8}1h[4:1]/7,,2,2h[4:1],,3,3,,
{16}7h[16:3],,,6h[16:3],,,5,,1h[16:3],,,2h[16:3],,,3,,
{8}3/4h[4:1],,5,5h[4:1],,6,6,,{4}57,24,{16}1b,8b,1b,8b,1b,,,,
{8}2/4h[4:1],,5,5h[4:1],,6,6<2[2:1],,{4}B3/E3,B3/E3,B3/E3,B3/E3,
{8}5h[4:1]/7,,4,4h[4:1],,3,3,,{4}2-4[8:1]/B6/E7,B6/E7,5-1[8:1]/B6/E7,B6/E7,
{8}2/8h[4:1],,7,7h[4:1],,6,6,,
{16}1h[16:3],,,8h[16:3],,,7,,5h[16:3],,,4h[16:3],,,3,,
{8}2^5[8:1],,6,6^1[8:1],,2,2,,
{4}4-8[8:1],8,{16}7b,1b,7b,1b,8b,,,,
{2}1xqq3[1:1]/5xqq7[1:1],,,{8},48,,37,
{1}3xv1[2:1]/7xv5[2:1],{16}15,,,25,,,35,,46,,,47,,,48,,
{8}3x,3,3,3,5x,5,5,5,4,4,6,6,3,3,7,7,
{16}1,8,1,8,1,8,1,8,2,7,2,7,2,7,2,7,{4}Ch[2:1],,,1b/8b,
{8}5x-2[8:1]/7x,,8-4[8:1],8,,1-3[8:1],1,,
4-8[8:1],4,,1,{16}12,,,12,,,12,,
{8}3x-8[8:1]/8x,,5-1[8:1],5,,2-4[8:1],2,,
1-6[8:1],1,,4,{16}34,,,34,,,34,,
{8}2x/4x-7[8:1],,1-5[8:1],1,,8-6[8:1],8,,
5-1[8:1],5,,8,{16}78,,,78,,,78,,
{8}1x/6x-1[8:1],,4-8[8:1],4,,7-5[8:1],7,,
3-8[8:1],3,,7,,18,27,36,{2}4-1[8:1]/5-8[8:1],
{8}2b/7b,,56,57,,34,2h[4:1]/4,,Cf,,12,12,
38,,4/5h[4:1],,Cf,,78,68,,12,1/3h[4:1],,Cf,,18,
{16}18,27,{8}36,,4/5h[4:1],,Cf,,12,38,,
78,6/1h[4:1],,Cf,,27,,
{16}6,5,6,5,6,,,,3,4,3,4,3,,,,{4}5s1[16:5],,,3b/7b,
{16}3,7,3,7,3,7,3,7,2,8,2,8,2,8,2,8,3,7,3,7,2,8,2,8,
1x,1x,1x,1x,1x-5[8:1],,,,
{1}1x>8[4:19]/Cf,,,,,,,,
{2}B2/B3,B6/B7,{6}E2,E3,E4,E8,E7,E6,
{8}E5,,,B1/B8/E2/E8,,,B4/B5,,{2}B2/B7/Ch[2:1],1b,
{4}3h[2:1],,4h[4:1],5h[4:1],6h[4:1],7h[4:1],8h[4:1],1,1/4-8[2:1],,1,1,
{16}1,8,1,8,1,8,1,8,2,3,4,5,6,7,8,1,
{1}2x-6[4:11]/6x-2[4:11],,,{4},,4-2[8:1]/5-7[8:1],4b/5b,
{16}1x/8x,,2,1,2,,8,,3,4,3,,{8}5,5,
2^4[8:1],6,2^8[8:1],6,2-5[8:1],6,2,6,
{16}3h[8:1]/6,,7,6,5h[8:1],,8,1,2h[8:1],,8,7,6h[8:1],,4,,
{8}2-5[8:1],1,28,,7-4[8:1],8,17,,
{16}1x/8x,,7,8,7,,1,,6,5,6,,{8}4,4,
7^5[8:1],3,7^1[8:1],3,7-4[8:1],3,7,3,
2-6[8:1],2,8-4[8:1],8,1-5[8:1],1,7,7,{4}48,2h[4:1]/6,
{32}6x,5,4,3,2,1,8,7,{4}2b/6b,
{16}1x/8x,,2,4,2,,36,,7,5,7,,{8}18,1/8h[4:1],,
{48}1x,E2,B2,B3,E4,,,,,,,,
1x,E1,B8,B7,E7,,,,,,,,{8}4x/6x,,3x/5x,3x/5hx[8:1],
{16}2,3,4h[8:1],,1,8,7h[8:1],,1,2,3h[8:1],,5,,
{8}7-4[8:1],8,17,,2-5[8:1],1,2b/8,,
{4}4x/7x,2x/5x,{16}5hx[8:1]/7hx[8:1],,,4h[8:1]/6h[8:1],,,35,,
2hx[8:1]/4hx[8:1],,,3h[8:1]/5h[8:1],,,46,,8,7,6,5,2,3,4,5,
7hx[16:3],,,8,,,16,,2hx[16:3],,,1,,,38,,
{4}1bw5[4:1]/5b,,,3b/7b,4xv2[8:3]/8xv6[8:3],,,
{8}3x/7x,1x/5x,{4},2x-5[8:1]/6x-1[8:1],2x/6x,3b/7b,
{8}2-6[8:1],2,1-5[8:1],1,8-4[8:1],8,7-3[8:1],7,
{2}1-5[8:1]*-6[8:1],8-3[8:1]*-4[8:1],
{8}1/5h[4:1],,1,6h[4:1],1,,14,,
{16}1h[16:3],,,2h[16:3],,,3,,5h[16:3],,,6h[16:3],,,7,,
{8}4h[4:1]/8,,8,3h[4:1],8,,58,,
{4}B5/B6/E5,B1/B2/E3,{16}7b,8b,7b,8b,7b,,,,
{8}4-8[8:1],4,5`Cf,5,7-3[8:1],7,1`Cf,1,
2-6[8:1],2,8`Cf,8,7,3x/7x,,1x/5x,,{16}4,5,4,,
{48}8x,E8,B7,B6,E6,,,,,,,,
8x,E1,B1,B2,E3,,,,,,,,{8}5x<3[8:3],{4}4hx[4:1],,4v1[8:1]*v7[8:1],4b,
{8}8-4[8:1],8,3-7[8:1],3,6-2[8:1],6,1-6[8:1],1,
{16}7hx[16:3],,,4hx[16:3],,,8x,,{8}2hx[8:1]/7hx[8:1],
{48},E3/E7,B3/B6,B4/B5,E5,,{4},
{16}1x,8,1,8,2,7,2,7,3x,6,3,6,2,7,2,7,
{32}1,2,3,4,5,6,7,8,{4}1b/Cf,{16}8b,8b,8b,8b,8b,,,,
{8}16,,16,5,1,3,14,,17,6,1,4,15,,17,,
38,,38,4,8,6,58,,28,3,8,5,4x/8x,4x/8x,,2x/7x,
{16}4hx[8:1]/6hx[8:1],,,3h[8:1]/5h[8:1],,,2h[8:1]/4h[8:1],,,
1h[8:1]/8h[8:1],,,,7h[8:1]/E1,,,3h[8:1]/6h[8:1],,,2h[8:1]/C,,,
1h[8:1]/8h[8:1],,,7h[8:1]/E5,,,{4}1b/8b,
{8}3x/7x,37,2x/6x,26,{16}1x,5,1,5,1x,5,1,5,
{32}1b,2,3,4,5,6,7,8,1b,2,3,4,5,6,7,8,
{4}1bv4[8:1]*v6[8:1],1x,
{1}3b/7b,,,,,,,,,,,,,
E

Re:MASTER


  • MASTER譜面のノーツの配置ミス、SLIDEの速度、EXノーツ、花火エフェクトの修正を行いました。 -- けもがみ (2026-04-08 02:28:45)
名前:
コメント:

タグ:

+ タグ編集
  • タグ:
最終更新:2026年04月12日 09:25