BASIC
ADVANCED
EXPERT
MASTER
(270)
{4}4,4,5,5,3,3,6,6,4,4,6,6,3,3,5,{12}6,5,4,
{4}3h[1:1],,4,4,5,5,6,6,5h[4:5],4,4,4,4,4,{8}5,4,,36,
{4}3x/6x,4,5,{8}6,6h[8:7],{4}4,4,5,5,
{4}36,5,4,{8}3,3h[8:5],{4}5,5,4h[4:1],3,
25,3,4,{8}6,6h[8:7],{4}4,4,5,5,
{1}2h[4:3]/7h[4:3],{4}E2,E4,E6,E8,
2-4[8:1],1,8-6[8:1],1,2-4[8:1],1,8-6[8:1],1,
2h[4:1],3,{8}7,{16}1,8,1,,6h[8:3],,{8},5,5,,3,4,2,,
{4}7-5[8:1],8,1-3[8:1],8,7-5[8:1],8,1-3[8:1],8,
7h[4:1],5,{8}2,{16}8,1,8z4[4:3],,3,,{1},
{8}5hx[4:1]/6hx[4:1],,,2hx[4:1]/5hx[4:1],,,12,,
3hx[4:1]/4hx[4:1],,,4hx[4:1]/7hx[4:1],,,78,,
5hx[4:1]/6hx[4:1],,,2hx[4:1]/5hx[4:1],,,12,,5,2,6,3,7,4,8,,
{4}2-6[8:1],1,8-4[8:1],7,6-2[8:1],5,4-8[8:1],3,
{8}2,1,8,7,6,5,4,3,{1}Chf[2:1],
{8}2,2,1,1,4,4,5,5,8,8,7,7,5,5,6,6,
1,1,8,8,3,3,4,4,1,5,1-5[8:1],5,1b,,,,
7,7,8,8,5,5,4,4,1,1,2,2,4,4,3,3,
8,8,1,1,6,6,5,5,8,4,8,4,{2}5h[4:1]/7h[4:1],
{8}2,2,1,1,4,4,5,5,8,8,7,7,5,5,6,6,
1,1,8,8,3,3,4,4,1,5,3,7,2b/6b,,,,
7,7,8,8,7,7,5,5,4,4,2,2,{16}8,7,6,5,1s5[1:1],2,3,4,
{2},,,3b/7b,
{8}45,,3,4,3,,25,,1h[8:3],,,2h[8:3],,,3,,
45,,6,5,6,,47,,8h[8:3],,,7h[8:3],,,6,,
45,,3,4,3,,25,,1h[8:3],,,2h[8:3],,,3,,
{4}8-4[4:1],4-8[4:1],E3,E2,1-5[4:1],5-1[4:1],E7,E8,
{8}1/8h[2:1],,6,6,6,,57,,8h[8:3],,,6h[8:3],,,5,,
1/4h[2:1],,3,3,3,,25,,1h[8:3],,,3h[8:3],,,4,,
5/8h[2:1],,6,6,6,,57,,8h[8:3],,,6h[8:3],,,5,,
{4}2V48[2:1],4,8V62[2:1],6,2V48[8:3],4,6b/Cf,,
{4}5h[4:15],{16},,,3,,,,,3,,,,{24}B4,B5,,{4},6h[8:3],,{8},
{4}6,{16},,,4,,,,,4,,,,{8}3,,,3,,,4h[1:3],,
{4}5,{16},,,6,,,,,6,,,,{24}B5,B4,,{4},3h[8:3],,{8},
{8}3,,{16},,,5,,,,,6,,,,{12}4,5,4,5,4,5,{2}4h[2:1],{1}Cf,,
{4}1h[4:1],2h[4:1],3h[4:1],4h[4:1],5h[4:1],6h[4:1],7h[4:1],8h[4:1],
{8}1,8,2,4,3,5,4,6,1,8,3,5,4,6,5,7,
{16}1,2,3,4,5,6,7,8,1,2,3,4,5,6,7,8,{4}1b/5b,4-8[8:1],Cf,,
{12}38,,2,1,,4,5,,8,7,,1,{4}6-1[8:1],2-5[8:1],7-4[8:1],3,
{12}1,,7,8,,5,4,,1,2,,8,{4}3-8[8:1],7-4[8:1],2-5[8:1],6,
{12}8,,2,1,,4,5,,8,7,,1,{4}6-1[8:1],2-5[8:1],7-4[8:1],3,
{12}1,,7,8,,5,4,,1,2,,3x/8x,{4},1/B7,8/B3,2/E5,
{12}16,,7,8,,6,5,,1,2,,8,{4}3-7[8:1],5-1[8:1],2-5[8:1],6,
{12}8,,2,1,,3,4,,8,7,,1,{4}6-1[8:1],3^6[8:1],8p4[8:1],2,
{12}1,,7,8,,4,3,,1,2,,8,{4}3v6[8:1],8-4[8:1],2q6[8:1],7,
8^5[8:1],5,1^4[8:1],4,8,45,2b/7b,,
{24}1x/8x,2,3,{4}4h[4:1],{24}1x,2,3,{4}4h[4:1],2b,
{24}1x/8x,7,6,{4}5h[4:1],{24}8x,7,6,{4}5h[4:1],7b,
{24}1x/8x,2,3,{4}4h[4:1],{24}1x,2,3,{4}4h[4:1],2b,E2,E8,E6,E4,
{24}1x/8x,7,6,{4}5h[4:1],{24}8x,7,6,{4}5h[4:1],7b,
{24}1x/8x,2,3,{4}4h[4:1],{24}1x,2,3,{4}4h[4:1],2b,
{24}1x/8x,7,6,{4}5h[4:1],{24}8x,7,6,{4}5h[4:1],7b,E8,E2,E4,E6,
{24}1x/8x,2,3,{4}4h[4:1],{24}2x,3,4,{4}5h[4:1],2b,
{24}1x/8x,7,6,{4}5h[4:1],{24}7x,6,5,{4}4h[4:1],7b,
{24}1x/8x,2,3,{4}4h[4:1],{24}2x,3,4,{4}5h[4:1],2b,E7,E1,E5,E3,
{24}1x/8x,7,6,{4}5h[4:1],{24}7x,6,5,{4}4h[4:1],7b,
{24}1x/8x,2,3,{4}4h[4:1],{24}2x,3,4,{4}5h[4:1],2b,
{24}1hx[4:1]/6x,5,4,{4}3,{24}3x/8hx[4:1],4,5,{4}6,1x/8x,{1}2b-5[8:1]/7b-4[8:1],
{4}4h[4:11],,6,6,{24}B5,B4,,{4},
{8}3h[8:3],,,,,3,,,5h[8:3],,,,,{4}2x/4x,3,5x/7x,6,
3x/4x-8[2:1],3,3,3,5x-1[2:1]/6x,6,6,6,
4x/5x-7[8:1],5,4x-2[8:1],4,5x-8[8:1],5,4x-1[8:1],4,
{16}8,7,6,5,4,3,2,1,8,7,6,5,4,3,2,1,{4}4b/8b,5-1[8:1],Cf,,
{12}3x/8x,,2,1,,4,5,,8,7,,5,6-2[8:1],,6,4-8[8:1],,4,7-4[8:1],,7,3,,,
1x/6x,,7,8,,6,5,,1,2,,4,3-8[8:1],,3,6^3[8:1],,6,1q5[8:1],,1,7,,,
3x/8x,,2,1,,5,6,,8,7,,1,6v3[8:1],,6,1-5[8:1],,1,7p3[8:1],,7,2,,,
1x/8x,,,6,4,5,3,,,1x/2x,,3b/8b,{4},2/E5,7/E4,1/B6,
{12}7-4[8:1],,7,8-3[8:1],,8,6^3[8:1],,6,1q5[8:1],,1,7v4[8:1],,7,3-8[8:1],,3,6,,6,1b/5b,,,
2-5[8:1],,2,1-6[8:1],,1,3^6[8:1],,3,8p4[8:1],,8,2v5[8:1],,2,6-1[8:1],,6,3,,3,4b/8b,,,
7v2[8:1],,7,1q5[8:1],,1,8p3[8:1],,8,{4}2,
{6}1x/4x,25,36,5x/8x,47,36,
{4}1>5[4:1],5<1[4:1],1>5[4:1],5w1[4:1],Cf,,2b/7b,,
4/6-8[8:1],5,4-2[8:1]/6,5,4/6-8[8:1],5,4-2[8:1]/6,5,
18,56,{8}3,{16}5,4,5,,{8}2h[8:3],,1,1,,7,8,6,,
{4}3-1[8:1]/5,4,3/5-7[8:1],4,3-1[8:1]/5,4,3/5-7[8:1],4,
18,34,{8}6,{16}4,5,4z8[4:3],,{8}7,{1},
{8}1x/2x,,57,5x/7hx[4:1],,8,16,,7x/8x,,24,2hx[4:1]/4x,,1,38,,
5x/6x,,13,1x/3hx[4:1],,4,25,,3x/4x,,68,6hx[4:1]/8x,,5,47,,
{4}3x-1[8:1]/6x,34,3x/6x-8[8:1],56,3x-1[8:1]/6x,34,3x/6x-8[8:1],56,
{16}1x,8x,1x,8x,1x,8x,1x,8x,1x,8x,1x,8x,1x,8x,1x,8x,
{24}1x,2,3,4,5,6,7,8,1,2,3,4,5x/8x,7,6,5,4,3,2-6[8:1],1,8,7,6,5,
{64}2b/4b,Cf,
{1},,,,,,,,,,,,,,,
E
Re:MASTER
- ノーツの配置ミス、SLIDEの速度の修正を行いました。 -- けもがみ (2026-02-21 05:04:36)
最終更新:2026年04月07日 21:25