アットウィキロゴ

Boys O’Clock

アーティスト technoplanet

BPM BASIC ADVANCED EXPERT MASTER Re:MASTER
262 5 7+ 10+ 13 -

EXPERT MASTER Re:MASTER
譜面制作者 サファ太 譜面-100号 -

BASIC


ADVANCED


EXPERT


MASTER

(262)
{8}13,,7,5,,2,{4}4,56,34,68,{8}2,4,,7,{4}5,34,56,
{2}1h[2:3]/2h[2:3],,,{24},3x/8x,4x/7x,5hx[8:5]/6hx[8:5],,,{4},,,,,
46,7,8,13,2,1,58,4,3,24,5,6,37,2,1,68,7,8,14,5,6,57,4,3,
27,6,5,24,3,4,58,1,2,13,8,7,46,2,35,7,46,2,3q4[2:1],,,6b,,,
28,{8}3,3,{4}4,57,6,5,14,{8}8,8,{4}7,68,1,2,
37,{8}6,6,{4}5,24,{8}3,3,{4}4,58,1,2,13,8,7,
36,{8}2,2,{4}1,68,7,8,14,{8}5,5,{4}6,13,8,7,
46,2,35,7,46,3,24,8,57,1,24,1,
1b/7b,8,2qq3[2:1],,6,7,28,1,7pp6[2:1],,3,2,
1,{8}7,7,{4}5,8,{8}2,2,{4}4,2^5[4:1],1,8,7^4[4:1],8,1,
35,26,17,28,37,46,57,48,13,24,15,68,
{4}1p5[4:1]/7,,,2/8q4[4:1],,,,37,26,15,26,37,
4b/8b,{8}6,5,{4}4,E1/E8,B2/B6,E4/E5,
15,{8}3,4,{4}5,E1/E2,B3/B7,E5/E6,
{8}C,,7,6,5,,C,,2,3,4,,{4}18,57,24,1p4[4:1]/8q5[4:1],,,
E3/E4/E7/E8/Cf,,,E2/E3/E6/E7/Cf,,,E1/E4/E5/E8/Cf,,,E1/E2/E5/E6/Cf,,,
C,1b/8b,{8}5,7,{4}1,4,2,8x/E3,7x/E2,6x/E1,1x/E7,2x/E8,3x/E1,
47,{8}2,2,{4}2,5,47,18,25,{8}7,7,{4}7,4,25,18,
{8}35,,2,2,2,,46,,7,7,7,,{4}1x/E7,2x/E8,3x/E1,8x/E3,7x/E2,6x/E1,
5,45,57,3,23,35,4,45,24,6,67,46,
E3/E4/E6/E7/Cf,,,E1/E3/E4/E8/Cf,,,E3/E4/E6/E7/Cf,,,E1/E2/E6/E7/Cf,,,
{0.5}3bqq5[4:21]/7bqq1[4:21],,,
{8}8b,1,7,8,7,6,1b,8,2,1,2,3,1b,8,7,6,8b,1,2,3,1b,8,7,6,
1b,2,8b,7,2b,3,7b,6,3b,4,6b,5,3b,2,1,8,7,6,5,4,
3x/7x,2x/6x,1x/5x,4x/8x,{2}Chf[4:3],,,
{4}7h[2:1],1,1,8,{8}3,4,{4}5,2h[2:1],8,8,1,{8}6,5,{4}4,
8h[2:1],3,3,1h[2:1],6,6,28,17,68,17,28,13,
24,8,8,57,1,1,48,6,6,15,3,3,
4-8[4:1]/7-5[4:1],,,2-4[8:1]/5-1[8:1],,,
,45,23,18,67,45,{2}Chf[2:3],,,
{4}8b,{8}1,7,{4}2,5,28,46,1,{8}8,2,{4}7,4,17,35,
12,{8}5,5,{4}5,78,{8}4,4,{4}4,13,68,45,27,,,
E1/E2/E3/E4/Cf,,,E4/E5/E6/E7/Cf,,,E1/E6/E7/E8/Cf,,,E3/E4/E5/E6/Cf,,,
C,1b/8b,{8}2,1,{4}8,7,8,1x/E7,2x/E8,3x/E1,8x/E3,7x/E2,6x/E1,
{8}45,,3,6,2,7,{12}1x,8x,7x,6x,5x,4x,3x,2x,1x,
{4}4x/8x,,17,35,,{8}6,5,4,,,3,4,5,6,,4,,2,1,{4}8,4,6,2h[2:1],,,
{8}68,,7,8,1,2,13,,2,1,8,7,{12}6x/8x,1x,2x,3x,4x,5x,6x,7x,8x,{4}1x/5x,,
37,4,26,{8}7,6,{4}5,,{8}3,2,{4}1x/E7,2x/E8,3x/E1,8x/E3,7x/E2,6x/E1,
28,{8}3,3,{4}3,4,35,26,17,{8}6,6,{4}6,5,46,37,
{8}28,,7,6,5,,17,,2,3,4,,{4}8x/E3,7x/E2,6x/E1,1x/E7,2x/E8,3x/E1,
57,{8}6,6,{4}6,1h[2:1],2,2,24,{8}3,3,{4}3,8h[2:1],7,7,
2hx[4:3],{20}B1/B8,B2,B3,B4,B5,B6,,,,,
{4}7hx[4:3],{24}E1/E2,E8,E7,E6,E5,E4,,,,,,,
{4}3hx[4:3],{24}B4/B5,B3,B2,B1,B8,B7,,,,,,,
{4}6hx[4:3],{24}E4/E5,E6,E7,E8,E1,E2,,,,,,,
{4}1hx[4:3],{24}B6/B7,B5,B4,B3,B2,B1,,,,,,,
{4}8hx[4:3],{24}E7/E8,E6,E5,E4,E3,E2,,,,,,,
{4}4hx[4:3],{24}B6/B7,B8,B1,B2,B3,B4,,,,,,,
{4}5hx[4:3],{24}E6/E7,E8,E1,E2,E3,E4,,,,,,,
{4}Chf[4:3],,,B2/B7/E2/E3/E7/E8,{2},,,,,,,
{8}1,6,5,8,3,4,
{1}1b^6[4:1],,,,,,,,,,,
E

Re:MASTER


  • {20}の部分を全て{24}にしました。 -- 嵐雅 (2021-01-11 19:20:59)
名前:
コメント:

タグ:

+ タグ編集
  • タグ:
最終更新:2026年03月30日 21:53