| アーティスト |
達見 恵 featured by 佐野 宏晃 |
BASIC
ADVANCED
EXPERT
MASTER
(183)
{8}3/6h[8:3],,,4,,,,3/7h[2:1],{8},,,5,,,,,
{8}3h[8:3]/6,,,4,,4,,5-2[4:1]/6-1[4:1],{4},,,27,
{16}25,,3,4,3,,{4}7-4[8:1],78,2-5[8:1],12,7-4[8:1],{8}78,8,,
{16}25,,3,4,3,,{4}7-4[8:1],2>6[4:1]/7,{8}2b,{1},
{4}3h[4:3]/5,5,4,{8}4,4,{4}2h[4:3],4,5,6,
6h[2:1],5,5^3[8:1],,5h[4:1],4,36,,
5,{8}5,5,{4}6h[4:1],5,4,35,25,36,
{2}4^1[8:1]/5h[4:1],7,4h[4:1]/5^8[8:1],{4}2,18,
23,23,24,25,26,27,28,12,
{1}2q7[2:1]/7p2[2:1],{8}3,3,4,4h[4:1],,2,2,,
4h[4:1]/5,,5,5-8[8:1],{4},1,
1h[4:1]/8,{8}8,8-5[8:1],{4},4,
34,{8}34,3-8[8:1]/4-7[8:1],,,,16,,
{16}7,8,7,,{4}1-4[8:1]/8-5[8:1],1x/8x,{8},
{4}4>8[8:11]/6,,E1,E8,E7,E6,E5,,
3/5<1[8:11],,E1,E2,E3,E4,E5,45,
2h[4:3]/4,{8}5,5,6,6,{4}7,5/7h[4:3],{8}4,4,3,3,2b,,
1/2^5[8:1],,,{4}8,7,6,45,34,23,
{8}12,12,,18,18,,7-3[8:1]/8-4[8:1],,7b/8b,,,,
1-5[8:1],5<5[8:3]*>5[8:3],,,,,,,
8-4[8:1],4>4[8:3]*<4[8:3],,,,,,,7,8,,16,,
{2}3^8[8:1]/7^4[8:1],4^7[8:1]/8^3[8:1],3v1[8:1]/7v5[8:1],
{8}37,,,3,3h[4:1],,6,5,5^8[8:1],,4,5,5^2[8:1],,6,5,5,,46,
{4}4-1[8:1],45,8-5[8:1],18,36,2x/7x,
{8}8-4[8:1],4>4[8:3]*<4[8:3],,,,,,,
1-5[8:1],5<5[8:3]*>5[8:3],,,,,,,2,1,,38,,
{2}2^5[8:1]/6^1[8:1],1^6[8:1]/5^2[8:1],2v4[8:1]/6v8[8:1],
{8}26,,,6,6h[4:1],,3,4,4^1[8:1],,5,4,4^7[8:1],,3,4,4,,35,
{4}5-8[8:1],45,1-4[8:1],18,25,34,{8}25,25,{16}3,4,3,4,3,,
{8}25,,8,17,,6,57,4,,2,13,,8,17,2-7[8:1]/6,,6,,,
{4}67,7-3[8:1]/8,6b/7b,{8},{12}E8,E7,E6,E2,E3,E4,{4}B4/B5/E5,
{4}26,{8}12,12,38,38,47,,26,,78,78,16,16,25,5,
{4}1V74[8:1],,7,27,38,27,16,47,
{8}5/6h[8:3],,,E7/E8,,,3h[8:3]/4,,,E2/E3,,,56,56,
3h[8:3]/4,,,E2/E3,,,5/6h[8:3],,,E7/E8,{6}1x,4x,2x,{8},
{8}7h[8:3]/8,,,E6/E7,,,1/2h[8:3],,,{4}E3/E4,E6/E7,B1/B8,
{8}3h[4:1]/4h[4:1],,,B7/B8/E1/E7/E8,,,
5h[4:1]/6h[4:1],,,{6}B1/B2/E1/E2/E3,
3x/8x,4x/7x,5x/6x,4x/7x,,{8}1b/2b,,,B2/B3/B6/B7/Cf,,
1h[8:7]/8,8,7,7,6,6,5,4h[4:1],,1,1,28,28,37,,6,
{16}4,5,4,5,3,6,3,6,2,7,2,7,1,8,1,,
6hx[16:3],,,5hx[16:3],,,4x,,4hx[16:3],,,2x,,,,,{2}37,
{16}E1,,,C,,,{4}E5,B7/B8/E8,B3/B4/E4,B1/B8/E1,B4/B5/E5,,
{16}E7,C,E3,,,E1,,,C,,E5,,,E2/E8,,,E3/E7,,{6}E4/E6,E5,,
{16}8x,7,6,5,4,,1x,2,3,4,5,,{4}18,
{16}E8,B7,B6,B5,E5,,E2,B2,B3,B4,E5,,{4}E3/E7/C,
{16}1x,,,28,,,37,,5x,,,46,,,37,,{1}1bw5[4:1],
{0.5}3h[2:3]/7h[1:2],3>4[2:3],
{2}3>4[4:3]/6,,7,{12}3,5,3,2,4,2,
{8}2h[8:3],,,4,4,5,6,,
{16}5h[16:3],,,6h[16:3],,,7h[16:3],,,8h[16:3],,,{4}1,
{32}2x,3x,4x,5x,6x,7x,8x,1x,
{8}2b,8-4[8:1],4>4[8:3]*<4[8:3],,,,,,,2,1,,38,,
{2}2^5[8:1]/6^1[8:1],5^2[8:1]/1^6[8:1],2v4[8:1]/6v8[8:1],
{8}26,,,6,6h[4:1],,3,4,4^1[8:1],,5,4,4^7[8:1],,3,4,4,,27,
{4}7-3[8:1],27,2-6[8:1],27,25,34,{8}25,25,{16}3,4,3,4,3,,
{8}25,,8,17,,6,57,4,,2,13,,8,17,2-7[8:1]/6,,6,,,
{4}67,7-3[8:1]/8,6b/7b,{8},{12}E8,E7,E6,E2,E3,E4,{4}B4/B5/E5,
26,{8}78,78,16,16,25,5,26,,12,12,38,38,47,,
34,3,56,6,34,3,56,6,{4}2-7[8:1]/5,7,4/8-5[8:1],5>6[8:5],
{1}1h[4:7],{4}5,6,7,8,1,48,37,
2-4[8:1]/6-4[8:1],26,4-1[8:1]*-7[8:1],4,8>8[4:3]*<8[4:3],
{1}8,{4}15,26,{8}37,7,,
{4}2-6[8:1],12,7-3[8:1],78,1^6[8:1]/2^5[8:1],12,7^4[8:1]/8^3[8:1],78,
{8},27,{16}1,8,1,,{4}7-4[8:1],37,2-5[8:1],26,8-5[8:1],4>8[4:1]/8,
{8}6h[8:7],,,,,,,{16}E8,C,{4}E4,,,,,,,,,,,{8},{16}5,5,
{1}2,,,,,,,,,,,,,
E
Re:MASTER
最終更新:2026年04月12日 13:49