アットウィキロゴ

オリフィス

アーティスト 40mP feat. シャノ

BPM BASIC ADVANCED EXPERT MASTER Re:MASTER
200 3 7+ 10 12+ -

EXPERT MASTER Re:MASTER
譜面制作者 華火職人 はっぴー -

BASIC


ADVANCED


EXPERT


MASTER

(200)
{8}3h[1:1],,4,5,,,,,6h[1:1],,5,4,,,,,3h[1:1],,4,5,,,,,{2}6,B4/B5,
{8}6h[1:1],,5,4,,,,,3h[1:1],,4,5,,,,,6h[1:1],,5,4,,,,,{4}3,,4,3b/5b,
{8}1/7^4[8:1],,3,3,,4,35,,2^5[8:1]/8,,6,6,,5,46,,
1/7^4[8:1],,3,3,,4,{4}35,2-5[8:1],7,6-1[8:1],3,
{8}2^5[8:1],,6,{4}6,7-4[8:1]/8-3[8:1],7x/8x,
1-6[8:1]/2-5[8:1],{8}1x/2x,,47,47,,
18,,24,3,57,6,24,3,45,4-1[8:1]/5-8[8:1],,4x/5x,{2},
{8}7h[4:1],,5,4h[4:1],,,35,,2h[4:1],,4,5h[4:1],,,4x/6x,,
7h[4:1],,5,4h[4:1],,,35,,2h[4:1],,5,6h[4:1],,,4x/7x,,
2h[4:1],,4,5h[4:1],,,46,,7h[4:1],,5,4h[4:1],,,3x/5x,,
2h[4:1],,4,5h[4:1],,,46,,{2}B7/B8/E1/E7,B3/B4/E3/E5,
{4}8,5-1[8:1]/8,8,8,18,28,38,4x/8x,58,6-2[8:1]/8,8,8,48,48,{8}48,7,26,,
{4}1,1/6^3[8:1],1,1,18,17,16,15,14,1/3-7[8:1],1,1,18,27,{16}4,5,4,,{4}26,
{8}8^5[8:1],,,3^8[8:1],,,5qq6[2:1],,{2},{16}2h[16:3],,,3h[16:3],,,4,,
{8}4^1[8:1],,,7^4[8:1],,,2qq3[2:1],,{4},,8-4[8:1],28,
{8}1^4[8:1],,,6^1[8:1],,,4pp3[2:1],,{2},{16}8h[16:3],,,7h[16:3],,,6,,
{4}5^2[8:1]/6^1[8:1],,38,{8}34,25,,{16}6,5,6,,{8}47,,1,1,,
{4}5/7^2[8:1],5,4,{8}3,3,{4}2^7[8:1]/4,4,{8}5,5,46,,
{4}1/6^3[8:1],1,28,{8}1,1,{4}3^6[8:1]/8,8,17,{8}3,5,
46,,5,{4}5<1[4:1],1>5[4:1],5,{8}1,{4}1h[4:1],8,45,
27,{16}36,,4,5,{8}4,36,{4}2-5[8:1]/7-4[8:1],2x/7x,,,3/6-3[8:1],
1/6x,24,{8}45,1-4[8:1]/8-5[8:1],,1x/8x,,36,2/7h[4:1],,5,5,4,3,
25,,1,2qq1[4:1],,1>8[4:1],,5x,{2},{8}35,,46,7,
18,,3,{4}3-7[8:1],6-2[8:1],{8}1h[4:1],,,28,2-5[8:1]/8,,6-1[8:1],,
3h[4:1],,,48,{4}4/8-4[8:1],1-5[8:1]/8,17,{8}6,6,5,{16}3,4,3,,{4}2-6[8:1]/5-8[8:1],
25,3x/7x,{8}1,1>6[4:1],,8h[2:1],,,,4,4,,56,4,
{4}3-7[8:1],8,6-3[8:1],{8}1,1,,2,2,{16}6,5,{8}7,4/8x<3[2:1],,3,
{2},{8}1h[8:3],,,4,,6,6,,{16}8h[16:3],,,7h[16:3],,,6,,
{8}5V37[2:1]/7V15[2:1],,,,,,,2^5[4:1],,,,,7h[4:1],,5,4,
35,,26,{4}1^4[8:1]/5^8[8:1],1x/5x,{8}3h[4:1]/7h[4:1],,,{4}2-7[8:1]/6-3[8:1],,1b/5b,
{8}6h[2:1],,,,5,6,3,7h[8:5],,{16}E5,E4,E3,,,,
{8}5,7,2,8h[8:5],,{16}E5,E4,E3,,,,{8}5,8-4[8:1],1,8x,
{2},{32}1x,2,3,4,5,6,7,8,{4}1,
{8}3x/7x,,2,{4}2h[4:1],4h[4:1],5h[4:1],7-3[8:1],1^4[8:1],{8}8,8,,
{8}26,,7,{4}7h[4:1],5h[4:1],4h[4:1],2-6[8:1],8^5[8:1],{8}1,1,,
37,,2,2,,34,,25,2h[4:1]/5,,{16}E6,E5,E4,,{8},18,18,,
26,,7,{4}7h[4:1],5,48,35,2-6[8:1]/6,{8}8,8,,
57,,3,{4}3h[4:1],1h[4:1],8h[4:1],6-2[8:1],5>1[8:1],{8}8,8,,
25,,6,{4}6h[4:1],8h[4:1],1h[4:1],3,{16}E6,E5,B3/E4,,,B6/B7,,,B1/B8,,
{8}B4/B5/Cf,,,{4}18,57,24,{8}18,27,3^1[8:1]/6^8[8:1],,,,27,
27,,46,,3,3,24,1,8,7,36,2,15,,{16}2,5,4,7,
{8}1b,,,,,,,27,,{16}4,5,4,,,,{4},3-6[8:1]/6,
3x/8,57,{8}36,4-1[8:1]/5-8[8:1],,4x/5x,,36,2h[4:1]/7,,4,4,5,6,
56,,8,1/7pp8[4:1],,8<1[4:1],,4x,{4},,46,{8}35,2,
18,,6,{4}6-2[8:1],3-7[8:1],{8}8,8,,27,,{16}1,8,1,,
{4}2-5[8:1]/7-4[8:1],{1}27,{8},3b/6b,{4}3b/6b,,4-1[8:1]/7-3[8:1],
47,2x/6x,{8}8,8<3[4:1],,1h[2:1],,,,5,5,,34,5,
{4}6-2[8:1],1,3-6[8:1],{8}8,8,,7,7,{16}3,4,{8}2,1x>6[2:1],,6,
{2},{8}8h[8:3],,,5,,3,3,,{16}1h[16:3],,,2h[16:3],,,3,,
{8}2V84[2:1]/4V62[2:1],,,,,,,7^4[4:1],,,,,2h[4:1],,4,5,
46,,37,{4}4^1[8:1]/8^5[8:1],4x/8x,{8}2h[4:1]/6h[4:1],,,37,37,,26,
{16}1-5[8:1],5,1,5,{8}1,,6,7-3[8:1],,4,{4}4>5[2:1],,,,35,
{8}1>6[2:1],,,8,8,,7,,8<3[2:1],,,1,1,,2,,
1>6[2:1],,,8,8,,7,,8h[8:3],,,1,1,,27,,
{4}4^1[8:1]/8^5[8:1],4x/8x,{8}26,3,{4}4-1[8:1]/8-5[8:1],{2}48,8x,
{8}3h[2:1],,,,4,3,6,2h[8:5],,{16}E5,E6,E7,,,,
{8}4,2,7,1h[8:5],,{16}E5,E6,E7,,,,{8}4,1-5[8:1],8,1x,
{1},,,,,,,,,,,,,
E

Re:MASTER


名前:
コメント:

タグ:

+ タグ編集
  • タグ:
最終更新:2026年04月09日 19:49