BASIC
(200.0){1},,,,,,,,,
{1}2,,
{1}1,,
{1}8,,
{1}7,,
{2}8,8,{1},
{2}7,7,{1},
{2}6,6,{1},
{1}5h[1:1],,
{2}4,4,{1},
{2}3,3,{1},
{2}2,2,{1},
{1}1h[1:1],,
{1}2-6[4:3],,
{1}7-3[4:3],,
{1}1-5[4:3],,
{1}6,
{1}4/5,
{1}E5,
{1}B5,
{1}B4,
{1}B6,
{1}B3,
{1}B2/B7,
{1}Chf[1:1],,
{2}8,8,
{1}8,
{2}7,7,
{1}7,
{2}6,6,
{1}6,
{2}5,5,
{1}5x,
{2}4,4,
{1}4,
{2}3,3,
{1}3,
{2}2,2,
{1}2,
{2}1,1,
{1}1b,
{1}8h[1:2],,,,
{1}1h[1:2],,,,
{1}1,
{1}1,
{1}2,
{1}2,
{1}3,
{1}3,
{1}4h[1:1],,
{1}5,
{1}5,
{1}6,
{1}6,
{1}7,
{1}7,
{1}8,
{1}8b,
{4}8,8,8,,
{1}7,
{4}6,6,6,,
{1}4/5,
{4}4,4,4,,
{1}3,
{4}2,2,2,,
{1}1x/8x,
{2}1,1,
{2}2,2,
{2}3,3,
{1}4/5,
{2}5,5,
{2}6,6,
{2}7,7,
{2}8,8,
{1}1b,
{2}8,8,
{2}7,7,
{1}5/6,
{2}4,4,
{2}3,3,
{2}2,2,
{1}1/2,
{2}1,1,
{2}2,2,
{2}3,3,
{1}3/4,
{2}5,5,
{2}6,6,
{2}7,7,
{1}7/8,
{1}1-5[4:3],,,
{1}6,
{1}7-3[4:3],,
{1}2,
{2}1,1,
E
ADVANCED
(200.0){1},
{1}3x>6[4:7],,,,
{1}6x<3[4:7],,,,
{1}3hx[1:1],
{1}4h[1:1],
{1}5h[1:1],
{1}6x,
{1}6hx[1:1],
{1}5h[1:1],
{1}4h[1:1],
{1}3x,
{1}3h[1:1],
{1}4,
{1}6h[1:1],
{1}5,
{1}3h[1:1],
{1}4,
{1}6h[2:1],
{1}4/6,
{2}3,3,
{1}3/4,
{2}6,6,
{1}5/6,
{2}3,3,
{1}3/4,
{2}5,5,
{1}4/6,
{2}7h[2:1],8,
{1}8,
{2}2h[2:1],1,
{1}1,
{2}7h[2:1],8,
{1}8,
{2}2h[2:1],1,
{1}2/8,
{4}3,3,3/4,,
{4}6,6,5/6,,
{4}3,3,3/4,,
{4}5,5,4/6,,
{4}7,7,7/8,,
{4}2,2,1/2,,
{4}7,7,7/8,,
{4}1x/8x,1x/8x,2x/7x,,
{4}2b,2,1,1,
{4}8,8,1/7,,
{4}7,7,8,8,
{4}1,1,2/8,,
{4}3,3,4,4,
{4}5,5,4/6,,
{4}6,6,5,5,
{4}4x/5x,4x/5x,3x/6x,,
{4}2,2,1x/2x,1x/2x,
{4}2,1,2/8,,
{4}7,7,7x/8x,7x/8x,
{4}7,8,1/7,,
{4}6,6,5x/6x,5x/6x,
{4}6,5,4,3,
{4}2,2,1,1,
{4}1x/8x,1x/8x,2x/7x,,
{1}3x>4[4:11],,,,
{1}5x<4[4:11],,,,
{1}B4,
{1}B3,
{1}B2,
{1}B1,
{1}B8,
{1}B7,
{1}B6,
{1}C1,
{2}1,1,
{2}2,2,
{2}3,3,
{2}4,4,
{2}5,5,
{2}6,6,
{2}7,7,
{4}8,8,1/7,,
{4}7b,7,8,8,
{4}1,1,2/8,,
{4}3,3,4,4,
{4}5,5,4/6,,
{4}7,7,6/8,,
{4}2,2,1/3,,
{4}2,2,3,3,
{4}4x/5x,4x/5x,3x/6x,,
{4}2,1x/2x,2,1x/2x,
{4}2,1,2x/8x,,
{4}7,7x/8x,7,7x/8x,
{4}7,8,1x/7x,,
{2}2h[2:1],1h[2:1],
{2}8h[2:1],7x,
{2}6h[2:1],5h[2:1],
{2}4h[2:1],3b,
{2}2,1/2,
{2}7,7/8,
{2}2,1/2,
{4}8,8,1/7,,
{2}6,5/6,
{2}3,3/4,
{2}6,5/6,
{4}4,4,3/5,,
{4}2,2,1,,
{4}7,7,8,,
{4}2,2,1,,
{4}8,8,1/7,,
{4}6,6,5,,
{4}3,3,4,,
{4}6,6,5,,
{4}4x/5x,4x/5x,3x/6x,,
{1}2x>6[4:5],,
{1}7x<3[4:5],,
{1}2x>6[4:5],,
{2}7x<3[4:5],{1},,
E
EXPERT
(200)
{1}3h[1:1],4h[1:1],5h[1:2],,6h[1:1],5h[1:1],4h[4:7],{4},,,3,
25,5,4,5,47,4,5,4,35,5,6,5,4,3,E4,E6,
47,4,5,4,25,5,4,5,46,4,5,4,35,E4,C,E8,
1x/6h[4:1],5,6,57,{8}4,4,{4}5h[2:1],,4,
3h[4:1]/8,4,3,24,{8}5,5,{4}4h[2:1],,5,
,56,3,34,{8}5,5,{4}4h[2:1],,5,45,36,2V41[2:1]/7V58[2:1],,,,27,45,
3x/7h[4:1],8,7,16,{8}4,4,{4}5h[2:1],,4,
2h[4:1]/6,1,2,38,{8}5,5,{4}4h[2:1],,5,
7,78,2,12,{8}8,8,{4}1h[2:1],,8,18,27,36,45,E3,E4,E6,E7,
{8}2hx[8:3],,,4h[8:3],,,{4}3,4,5,{8}6,6,5,,
7hx[8:3],,,5h[8:3],,,{4}6,5,4,{8}3,3,4,,
2hx[8:3],,,4h[8:3],,,{4}3,4,5,{8}6,6,5,,{1}7p2[2:1],3^6[8:3],
{4}6h[4:1],5,7h[4:1],6,5,4,{8}2,2,1x,,
{4}h[4:1],4,2h[4:1],3,4,5,{8}7,7,8x,,
{4}6h[4:1],5,3h[4:1],4,5h[4:1],{8}4,4,{4}5x,2x/7x,
{8}7,7,8,,2,2,{4}1,B7/E8,B3/E4,Cf/E2/E6,,
{8}8-4[8:1],8,1,,2-5[8:1],2,{4}6,7,6hx[4:1]/8hx[4:1],,24,
{8}3-8[8:1],3,5,,7-4[8:1],7,{4}1,2,3h[4:1],4,1x/7x,
{8}8-4[8:1],8,1,,2-5[8:1],2,{4}7,6,5hx[4:1]/7hx[4:1],,12,
34,56,78,1-6[4:1]/2-5[4:1],,,38,2b/6b,
{8}1-5[8:1],1,8,,7-4[8:1],7,{4}3,2,1hx[4:1]/3hx[4:1],,68,
{8}1-5[8:1],1,8,,7-4[8:1],7,{4}2,3,2hx[4:1]/4hx[4:1],,57,
{8}6-1[8:1],6,4,,2-5[8:1],2,{4}8,7,6h[4:1],5,2x/8x,
56,34,12,7-4[4:1]/8-3[4:1],,,16,3b/7b,
{1}2h[1:1],4h[1:1],5h[1:1],7h[1:1],5h[1:1],4h[1:1],Ch[1:1],,
{2}6h[1:1],B5,3h[1:1],B4,5h[1:1],E5,{4}4,5,36,,
{1}6^3[2:1],3^6[2:1],{4}7,6,5,4,3,2,C/E1/E5,,
{4}3h[2:1],,4h[2:1],,5,6,47,,6h[2:1],,5h[2:1],,4,3,25,5^8[2:1],
,,,4,4^1[2:1],,,,3,4,5,6,4^1[4:1]/5^8[4:1],,,3b/6b,
{8}1-5[8:1],1,8,,7-4[8:1],7,{4}3,2,1hx[4:1]/3hx[4:1],,57,
{8}6-1[8:1],6,4,,2-5[8:1],2,{4}8,7,6hx[4:1],5x,2x/8x,
1^4[4:1]/7^4[4:1],,,17,2^5[4:1]/8^5[4:1],,,28,
56,34,12,7-4[4:1]/8-3[4:1],,,16,3b/7b,
{8}8-4[8:1],8,1,,2-5[8:1],2,6,,7p3[8:1],7,{4}1,2,12,
{8}8-4[8:1],8,1,,2-5[8:1],2,{4}7,6,5hx[4:1]/7hx[4:1],,2x/4x,
45,5x/7x,45,1x/3x,45,6x/8x,45,1x-5[8:1]/2x,
4,7x/8x-4[8:1],5,{2}1x-5[8:1]/2x-4[8:1],7x-5[8:1]/8x-4[8:1],{4}1b,
{8}2h[4:1],,4,4h[4:1],,3,{4}3,5,46,3,24,
{8}7h[4:1],,5,5h[4:1],,6,{4}6,4,35,6,57,
{8}2h[4:1],,4,4h[4:1],,3,{4}3,25,47,{8}1,1,8,8,
2h[4:1],,,1h[4:1]/8h[4:1],,,{4}78,56,34,12,3x/8x,
{8}7h[4:1],,5,5h[4:1],,6,{4}6,3,24,78,16,
{8}2h[4:1],,4,4h[4:1],,3,{4}3,6,57,12,38,
{8}7h[4:1],,5,5h[4:1],,6,{4}6,47,25,{8}8,8,1,1,
7h[4:1],,,1h[4:1]/8h[4:1],,,{4}12,78,45,B1/B2/B7/B8/Cf,,
,,,,,,E3,E4,4h[2:3],,,,,,E7,E6,{1}5h[1:1],4h[1:1],5h[1:1],
{4}4,E5,C,E1,
{1},,,,,,
E
MASTER
(200)
{1},,,,,,,
{8},,,,,4,45,,
36,,6,4,6,,56,,6,5,6,,56,,46,,36,,6,5,6,,46,,6,4,6,,46,,56,,
36,,6,4,6,,46,,56,,6,4,6,,46,,{4}56,6,6,6,56,46,36,26,
25,25,35,5,2-4[8:1]/5,5,5,45,45,45,35,5,1-4[8:1]/5,5,5,45,
46,2-7[8:1]/5,5,5,5/7-2[8:1],5,5,25,25,35,45,45,5,5,45,45,
46,46,45,4,4/7-5[8:1],4,4,45,45,45,46,4,4/7-3[8:1],4,4,45,
46,47,48,4,4/7-2[8:1],4,4,47,47,46,45,4/5h[1:1],E5,E4,E3,E2,
{8}1-5[8:1]/6,,7,7h[4:1],,4,{4}4/6-3[8:1],1-5[8:1],7-4[8:1],3-6[8:1],7,
{8}3/8-4[8:1],,2,2h[4:1],,4,35,,{2}1^6[8:1]/2^5[8:1],7^4[8:1]/8^3[8:1],
{8}1-5[8:1]/6,,7,7h[4:1],,4,{4}4/6-3[8:1],1-5[8:1],7-4[8:1],3,37,
6^3[8:1],1,2q6[8:1],8,7^2[8:1],4,5,46,
3h[4:1],{8}4,4,1,1,{4}7-2[8:1],3-6[8:1],8-5[8:1],1,37,
6h[4:1],{8}5,5,8,8,{4}2-7[8:1],5,4v1[8:1]/6v1[8:1],,37,
6h[4:1],{8}5,5,8,8,3,3,6,4,{4}5h[4:1],4,36,
1-4[8:1],1x/8-5[8:1],1/8x,{8}18,7,{4}46,3-8[8:1]/4-7[8:1],3x/4x,2b/5b,
{8}6,5,3/4-8[8:1],,1,1,{4}2-5[8:1]/7-3[8:1],27,26,{8}5,5,37,,
{4}1-5[8:1]/8-4[8:1],18,1^4[8:1]/8^5[8:1],18,18,B4/B5/E4/E6,{8}8,8,37,,
{4}2-6[8:1],2/8-4[8:1],1-5[8:1]/8,1/7-3[8:1],{8}1,1,26,,47,6,25,,
{4}3-7[8:1],6-2[8:1],1V35[4:1],5s1[4:1],8h[4:1],,{16}1,8,1,8,{4}2b,
{8}3,4,5-1[8:1]/6,,8,8,{4}2-6[8:1]/7-4[8:1],27,37,{8}4,4,26,,
{4}8-5[8:1],1-4[8:1],7-5[8:1],2-4[8:1],{8}8,8,37,,25,3,47,,
{4}3-1[8:1],6-8[8:1],4-1[8:1],5-8[8:1],4,26,{8}1,1,2-6[8:1]/8,,
{4}1-5[8:1],8-4[8:1],7-3[8:1],1h[4:1],8b,3b/7b,{8}24,3,56,7,
{0.5}1-4[2:3]/8,8-5[2:3],1-4[2:3],8-5[2:3],
{8}4/6h[4:1],,,4/6h[4:1],,,46,,3h[4:1]/5,,,3h[4:1]/5,,,35,,
4/6h[4:1],,,4/6h[4:1],,,{4}46,E1,C,E5,,
{8}3h[4:1]/5,,,3h[4:1]/5,,,35,,4/6h[4:1],,,4/6h[4:1],,,46,,
3h[4:1]/5,,,3h[4:1]/5,,,{4}3h[4:1]/5h[4:1],,,,45,
36,3,{8}3,4,3,,3,5,3,,3,4,3,,{4}35,3,{8}3,5,3,6,3,4,3,5,3,4,3,4,
3,,3,,3,4,3,,3,5,3,,3,5,3,,36,,3,,3,4,{4}3/5<4[2:1],,,,2b/7b,
{8}3,4,5-1[8:1]/6,,8,8,{4}2-6[8:1]/7-4[8:1],27,37,{8}4,4,26,,
{4}8-5[8:1],1-4[8:1],7-5[8:1],2-4[8:1],{8}8,8,37,,25,6,37,,
{4}2-7[8:1]/4-6[8:1],2x/4x,8,48,5-3[8:1]/7-2[8:1],5x/7x,1,14,
7^2[4:1],2^5[4:1],5^8[4:1],8z4[8:1],1b,,{16}1,8,1,8,{4}2b,
{8}3,4,5-1[8:1]/6,,8,8,{4}3-8[8:1]/6-2[8:1],26,17,{8}5,5,37,,
{4}8-5[8:1],1-4[8:1]/8x,1x/7-5[8:1],2-4[8:1]/7x,{8}28,8,{4}37,45,1-5[8:1]/7-4[8:1],
1x/7x,2-5[8:1]/6-1[8:1],2x/6x,2^4[8:1]/7^5[8:1],
2x/7x,2v7[8:1]/6^3[8:1],2x/6x,4-1[8:1]/6v8[8:1],
4b/6b,4v1[8:1]/5-8[8:1],4b/5b,3-1[8:1]/5p8[8:1],
3b/5b,4^1[8:1]/5^8[8:1],4b/5b,4-1[8:1]/5-8[8:1],
4b/5b,,{8},3,{4}2-6[8:1]/4,2/7-2[8:1],4-1[8:1]/7,4/8-5[8:1],28,
46,{8}3,24,,6,{4}5/7-3[8:1],2-6[8:1]/7,2/8-5[8:1],1-4[8:1]/8,18,
37,{8}6,57,,3,{4}2-6[8:1]/4,2/7-3[8:1],17,{8}8,8,1,7,
26,,12,38,,78,{4}1>5[4:1]/6,5<1[4:1],1>5[4:1],5,1b,
47,{8}3,24,,6,{4}5/7-3[8:1],2-7[8:1]/7,2/5-8[8:1],1-4[8:1]/5,17,
35,{8}6,57,,3,{4}2-6[8:1]/4,2/7-3[8:1],1-4[8:1]/7,1/8-5[8:1],18,
26,{8}3,24,,6,{4}5/7-3[8:1],2-6[8:1]/7,28,{8}1,1,8,2,
37,,78,16,,12,{4}3/8<4[4:1],4>8[4:1],8<4[4:1],Cf,,
36,{8}6,4,6,,56,,6,5,{4}6,56,46,36,{8}6,5,6,,46,,6,4,6,,46,,56,,
36,,6,4,6,,46,,56,,6,4,{4}6,46,56,6,6,6,
56,46,36,26,
{1},,,,,,
E
Re:MASTER
最終更新:2026年03月29日 13:36