アットウィキロゴ

Moon of Noon

アーティスト Sampling Masters MEGA

BPM EASY BASIC ADVANCED EXPERT MASTER Re:MASTER
200 4 7 9+ 13 14 -

EXPERT MASTER Re:MASTER
譜面制作者 Moon Strix rioN -

EASY


BASIC


ADVANCED


EXPERT


MASTER

(200)
{4}
1h[1:3],2,,3,,4,,5,,6,,7,8,12,78,27,
1V72[8:1]/3-6[8:1],,5V36[8:1]/7-2[8:1],,1V72[8:1]/3-6[8:1],,3-1[8:1]/4-7[8:1],34,
8V27[8:1]/6-3[8:1],,4V63[8:1]/2-7[8:1],,8V27[8:1]/6-3[8:1],,6-8[8:1]/5-2[8:1],56,
1V72[8:1]/3-6[8:1],,5V36[8:1]/7-2[8:1],,1V72[8:1]/3-6[8:1],,3-1[8:1]/4-7[8:1],34,
{8}
8V27[8:1]/6-3[8:1],86,,,4V63[8:1]/2-7[8:1],42,,,8,7,1,2,34,,5-2[8:1]/6-1[8:1],,56,,,,
7h[8:1]/8h[8:1],,3h[8:1]/4h[8:1],,25,3,47,8,12,,3-8[8:1]/4-7[8:1],,34,,,,
6h[8:1]/7h[8:1],,5h[8:1]/8h[8:1],,1V72[4:1],6-3[8:1],1,6,,,3-8[8:1]/4-7[8:1],,34,,,,
1h[8:1]/2h[8:1],,5h[8:1]/6h[8:1],,47,6,25,1,78,,5-2[8:1]/6-1[8:1],,56,,,,
2h[8:1]/3h[8:1],,1h[8:1]/4h[8:1],,8V27[4:1],3-6[8:1],8,3,,,56,,
1h[4:1]/8,,4h[4:1],2,1h[4:1],3,4h[4:1],2,1h[4:3],,2,2,,8,8,,
8h[4:1]/1,,5h[4:1],7,8h[4:1],6,5h[4:1],7,8h[4:3],,7,7,,1,1,1,
1h[4:1]/8,,4h[4:1],3,1h[4:1],2,4h[4:1],3,1h[4:3],,2,2,,8,8,,
8h[4:1]/1,,5h[4:1],6,8h[4:1],7,5h[4:1],6,8,8,1,1,27,36,45,,
8-3[8:1],2,8,7,4-1[8:1],2,4,5,8-5[8:1],4,8-4[8:1],3,8-3[8:1],2,8,1,
1-6[8:1],7,1,2,5-8[8:1],7,5,4,1-4[8:1],5,1-5[8:1],6,1-6[8:1],7,1,8,
8-3[8:1],2,8,7,4-1[8:1],2,4,5,8-5[8:1],4,8-4[8:1],3,8-3[8:1],2,8,1,
4V63[8:1]/2-7[8:1],42,,,8V27[8:1]/6-3[8:1],86,,,1,2,8,7,56,,3-8[8:1]/4-7[8:1],,34,,,,
5h[8:1]/6h[8:1],,1h[8:1]/5h[8:1],,8V61[4:1],5^2[8:1],8,5,,,5-2[8:1]/6-1[8:1],,56,,,,
3h[8:1]/4h[8:1],,4h[8:1]/8h[8:1],,12,,12,,23,34,45,56,
7-4[8:1],1,7,,2-5[8:1],8,2,,1V38[4:1],4^7[8:1],1,4,,,34,,
78,78,16,16,2^5[8:1]/5^8[8:1],,25,,12,12,3/8^5[8:1],,{16}83,2,1,8,7,6,5,4,
{8}
3p7[8:1],,5q2[8:1],,3>6[4:1],,5h[2:1],,,,4,,,1,28,,
6q2[8:1],,4p7[8:1],,6<3[4:1],,4h[2:1],,,,5,,,8,17,,
3p7[8:1],,5q2[8:1],,3>6[4:1],,5h[2:1],,,,4,,,1,28,,
34,45,56,67,86,75,64,53,14,25,36,47,15,84,73,62,
1h[8:1]/5,,1h[8:1]/5,6,1h[8:1]/7,,8h[8:1]/1-5[8:1],,8h[8:1],,8h[8:1]/4,,
4h[8:1]/8,,4h[8:1]/8,7,4h[8:1]/6,,6h[8:1]/4-2[8:1],,5h[8:1]/4,,6h[8:1]/1,,
1h[8:1]/6,,1h[8:1]/6,5,1h[8:1]/4,,4h[8:1]/1,,5h[8:1]/1,2,6h[8:1]/3,4,
5h[8:1]/6,,4h[8:1]/7,6,3h[8:1]/5,,5h[8:1]/3,,6h[8:1]/2,1,7h[8:1]/2,3,
8h[8:1]/4,,8h[8:1]/4,3,8h[8:1]/2,,1h[8:1]/8-4[8:1],,1h[8:1],,1h[8:1]/5,,
5h[8:1]/1,,5h[8:1]/1,2,5h[8:1]/3,,3h[8:1]/5-7[8:1],,4h[8:1]/5,,3h[8:1]/8,,
8h[8:1]/3,,8h[8:1]/3,4,8h[8:1]/5,,5h[8:1]/8,,4h[8:1]/8,7,3h[8:1]/6,5,
4h[8:1]/3,,5h[8:1]/2,3,6h[8:1]/4,,4h[8:1]/6,,3h[8:1]/7,8,2h[8:1]/7,6,
{1}1b/5b,{8}36,,36,,{16}4,5,4,5,4,,{8}36,27,
3^6[8:1],2,3,2-6[8:1],3,2,1^6[8:1],3,1,2-6[8:1],1,2,
3^6[8:1],2,3,2-6[8:1],3,2,1^6[8:1],3,1,2-6[8:1],1,2,,7/8w4[8:1],,8b,,,,
8-4[8:1],1-3[8:1],8,1,5-7[8:1],4-8[8:1],5,4,6-2[8:1],7-1[8:1],6,7,
3-5[8:1],2-6[8:1],3,2,7-4[8:1],2-5[8:1],7,2,8-4[8:1],1-5[8:1],8,1,8b,,,,45,,36,,27,
6^3[8:1],7,6,7-3[8:1],6,7,8^3[8:1],6,8,7-3[8:1],8,7,
6^3[8:1],7,6,7-3[8:1],6,7,8^3[8:1],6,8,7-3[8:1],8,7,,2/1w5[8:1],,1b,,,,
1-5[8:1],8-6[8:1],1,8,4-2[8:1],5-1[8:1],4,5,3-7[8:1],2-8[8:1],3,2,
6-4[8:1],7-3[8:1],6,7,2-5[8:1],7-4[16:3],2,7,1-4[8:1],8-5[8:1],1,8,
1-5[8:1],8-4[8:1],1-3[8:1],8-6[8:1],1-5[8:1],8,1,8,
{16}1,8,1,8,1,8,1,8,1,8,1,8,1,8,1,8,{32}2,3,4,5,6,7,8,1,2,3,4,5,6,7,8,1,{2}2b/6b,
{8}
7/6-3[8:1],7,76,7,7/6-3[8:1],7,76,7,7/6-3[8:1],7,7/6bv1[8:1],7,7/6b-3[8:1],7,7/6b,,
8^3[8:1],8,4-7[8:1],,8^3[8:1]/4,8,4-7[8:1],,8-4[8:1]/4,,8bw4[8:1],,8b,,,,
2/3-6[8:1],2,23,2,2/3-6[8:1],2,23,2,2/3-6[8:1],2,2/3bv8[8:1],2,2/3b-6[8:1],2,2/3b,,
1^6[8:1],1,5-2[8:1],,1^6[8:1]/5,1,5-2[8:1],,{8}15,,,,36,,36,,4-8[8:1]/5-1[8:1],36,45,,
{12}2,1,2,7,8,7,{16}2,3,4,5,{12}8,8,8,{16}7,6,5,4,{12}1,1,1,
{16}2h[8:1]/7h[8:1],,,3h[8:1]/6h[8:1],,,27,,
{12}15,2,3,48,7,6,{6}45,36,27,{4}1-4[8:1]/8-5[8:1],18,36,
{12},,1,3,2,8,6,7,{1}1b,,,,E

Re:MASTER


  • 追加しました。修正等ありましたらよろしくお願いします。 -- けもがみ (2021-02-03 08:40:04)
  • 3>6[8:1],,(6<3[8:1],,)→3>6[4:1],,(6<3[4:1],,)、2-5[8:1],7-4[8:1],2,7,→2-5[8:1],7-4[16:3],2,7,、{8},{12}1,3,2,8,6,7,→{12},,1,3,2,8,6,7,の箇所の修正を行いました。 -- けもがみ (2026-02-25 00:27:28)
名前:
コメント:

タグ:

+ タグ編集
  • タグ:
最終更新:2026年10月04日 21:07