アットウィキロゴ

前前前世

アーティスト RADWIMPS

BPM EASY BASIC ADVANCED EXPERT MASTER Re:MASTER
190 2 4 7+ 10+ 13 -

EXPERT MASTER Re:MASTER
譜面制作者 はっぴー Jack -

EASY


BASIC

(190.0){1}1,,
{1}1/8,,
{1}8,,
{1}1/8,,
{2}1,1,
{2}2,2,
{2}3,3,
{1}4/5,
{2}5,5,
{2}6,6,
{2}7,7,
{1}1b/8b,
{2}1,1,
{2}2,2,
{2}3,3,
{2}4,4,
{2}5,5,
{2}6,6,
{1}7h[1:1],,
{2}8,8,
{2}7,7,
{2}6,6,
{2}5,5,
{2}4,4,
{2}3,3,
{1}2h[1:1],,
{2}1,1,
{2}8,8,
{1}1h[1:1]/8h[1:1],,
{4}7,7,7,,
{4}8,8,8,,
{1}8-4[4:3],,
{4}2,2,2,,
{4}1,1,1,,
{1}1-5[4:3],,
{2}6,6,
{1}5/6,
{2}3,3,
{1}3/4,
{2}4,5,
{1}4/5,
{2}5,5,
{2}6,6,
{2}7,7,
{2}8,1b/8b,
{4}1,1,1,,
{4}2,2,2,,
{4}3,3,3,,
{1}4h[2:1]/5h[2:1],
{4}5,5,5,,
{4}6,6,6,,
{4}7,7,7,,
{1}1b/8b,
{4}8,8,8,,
{4}7,7,7,,
{4}6,6,6,,
{1}4h[2:1]/5h[2:1],
{4}4,4,4,,
{4}3,3,3,,
{1}2-6[4:3],,
{4}5,5,5,,
{4}6,6,6,,
{1}7-3[4:3],,
{2}1,1,
{2}2,1/2,
{2}3,3,
{4}4,4,4,,
{2}5,5,
{2}6,5/6,
{1}7h[2:1],
{2}8,8,
{2}1,1,
{1}2-6[4:3],,
E

ADVANCED

(190.0){2}1/2,7/8,
{4}1,2,3,,
{2}7/8,1/2,
{4}8,7,6,,
{2}5/6,3/4,
{4}5,6,7,,
{2}2/4,7/5s1[4:3],{1},
{4}2b,1,2,,
{4}7,8,7,,
{4}1,8,1,,
{4}1/8,2/7,3/6,,
{4}6,5,6,,
{4}3,4,3,,
{4}5,4,5,,
{4}3/6,2/7,1b/8b,,
{4}7,7,6,,
{4}5,5,4,,
{1}3-8[4:3],,
{4}2,2,3,,
{4}4,4,5,,
{1}6q3[4:3],,
{4}3,3,2,,
{4}1,1,8,,
{1}7-4[4:3],,
{4}6,6,7,,
{4}8,8,1,,
{1}2q7[4:3],,
{4}8,8,1/7,,
{4}1,1,2/8,,
{1}1^4[1:1]/8^5[1:1],,
{4}3,3,2/4,,
{4}6,6,5/7,,
{1}3-8[4:3]/4-7[4:3],,
{4}6,6,5/7,,
{4}3,3,2/4,,
{1}5-2[4:3]/6-1[4:3],,
{2}2h[2:1],1,
{2}7h[2:1],8,
{2}2h[2:1],3,
{2}4,3/5,
{2}6h[2:1],5,
{2}3h[2:1],4,
{2}5/6,4/7,
{2}3/4,2/5,
{2}3/6,2/7,
{4}1/8,1/8,2/7,,
{4}2b,2,1/3,,
{4}7,7,6/8,,
{4}1,1,8,8,
{1}2/7,
{4}6,6,5/7,,
{4}3,3,2/4,,
{1}5^2[4:3]/6^1[4:3],,
{4}7/8,7/8,1/6,,
{4}1/2,1/2,3/8,,
{4}7/8,1/6,2/5,3/4,
{1}2/5,
{4}3/4,3/4,2/5,,
{4}5/6,5/6,4/7,,
{1}3^8[4:3]/4^7[4:3],,
{4}1,2,3,,
{4}8,7,6,,
{1}4-1[4:3]/5-8[4:3],
{8},,,,1/8,1/8,,,
{2}7/8,1/2,
{4}8,7,6,,
{2}3/4,5/6,
{4}4,3,2,,
{2}1/2,7/8,
{4}1,2,3,,
{2}2/4,5/7,
{4}4/5,3/6,2/7,,
{2}7/8,1/2,
{4}2/7,,1/8,1^4[1:1]/8^5[1:1],{1},,
E

EXPERT

(190){8}5,5,4,,3,,2/4,,
{4}5,6^3[4:1],,,
{8}4,4,5,,6,,5,,
{4}4/6,3^6[4:1],,,
{8}5,5,4,,3,,2/4,,
{4}5,6^3[4:1],,,
{4}3,4,6,5,
{6}5/6,5h[6:1]/6h[6:1],,3/4,3h[6:1]/4h[6:1],,
{4}5/7,5/7,2/4,2/4,
{4}5/7,2/4,7/8,1/6,
{4}2/4,2/4,5/7,5/7,
{4}2/4,5/7,1/2,3/8,
{4}5/7,5/7,2/4,2/4,
{4}5/7,2/4,7/8,1/6,
{4}2/4,3/4,5/7,5^2[2:1]/6^1[2:1],{1},
{4}4/3h[1:2],4,5,5,
{4}4,4,5,5,
{1}4<3[1:1],
{4},,3/4,2/5,
{4}5/6h[1:2],5,4,4,
{4}5,5,4,4,
{1}5>6[1:1],
{4},,5/6,4/7,
{4}4/3h[1:2],4,5,5,
{4}4,5,6,5,
{1}4<3[1:1],
{4},,3/4,2/5,
{4}5/6h[1:2],5,4,4,
{4}5,4,3,4,
{1}5>6[1:1],
{4},,5/6,4/7,
{4}5,6,4/7,5/6,
{4}4,3,2/5,3/4,
{4}1,2,3/8,1/2,
{4}7/8,1/6,4/5,2b/7b,
{4}6h[2:1],5,3h[2:1],4,
{4}7h[2:1],6,2h[4:1],3^6[4:1],
{4},,1/8,1-5[4:1]/8-4[4:1],
{4},,6,5/7,
{4}3h[2:1],4,6h[2:1],5,
{4}2h[2:1],3,7h[4:1],6^3[4:1],
{4},,1/8,1-5[4:1]/8-4[4:1],
{2},4/5,
{4}3h[2:1]/4^7[4:1],,,4/5,
{4}6h[2:1]/5^2[4:1],,,4/5,
{4}1h[2:1]/2^5[4:1],,,4/5,
{4}8h[2:1]/7^4[4:1],,,4/5,
{4}3h[2:1]/4^7[4:1],,,4/5,
{4}6h[2:1]/5^2[4:1],,,4/5,
{4}3,3/4,6,5/6,
{4}3,2/4,6,5/7,
{4}1/8,2/7,3/6,4^1[4:1]/5^8[4:1],
{2},2b/7b,
{8}2/5,,4/7,,5/2h[4:1],,1,1,
{8},7/8,,1/6,,4/5,4/5,,
{4}7/8,2/5,1/2,3-8[4:1]/4-7[4:1],
{4},,4/5,2/7,
{4}3,2/4,6,5/7p2[4:1],
{4},,1/8,3/6,
{8}4h[4:1],,5,5,,2/7,,7/8,
{8},5-2[4:1]/6-1[4:1],,,,,,,
{8}4/7,,2/5,,4/7h[4:1],,8,8,
{8},1-6[4:1]/2-5[4:1],,,,,4/7,,
{8}2/5h[4:1],,4,4,,7/8,,2/5,
{8},1/2,,4/7,,4/5,4/5,,
{4}3h[4:1],4,6h[4:1],5,
{4}2h[4:1],1,7h[4:1],8>6[1:1],{1},
{4},,2/7,4^1[4:1]/5^8[4:1],
{4},,6,5/7,
{4}3,2/4,5/6,3/4,
{1}1b-5[2:1]/2b-5[2:1],
{8}4/5,,,,2b/7b,2b/7b,,,
{4}1/2,1/3,7/8,6/8,
{4}2/4,5/7,1/2,3/8,
{4}7/8,6/8,1/2,1/3,
{4}5/7,2/4,7/8,1/6,
{4}1/2,1/3,7/8,6/8,
{4}2/4,5/7,1/2,3/8,
{4}5/7,5/6,2/4,3^8[2:1]/4^7[2:1],{1},
{4}1/2,4/7,7/8,2/5,
{8}1/8,,3/6,,4/5,,2b/7b,2b/7b,
E

MASTER

(190)
{8}1-6[8:1],8,{4}7,5-2[8:1]/6,{8}8,8h[8:3],
{8},6,{4}6^3[8:1],{8}8,7,{4}26,
{8}8-3[8:1],1,{4}2,3/4-7[8:1],{8}1,1h[8:3],
{8},3,{4}3^6[8:1],{8}1,2,{4}37,
{8}1-4[8:1],8,{4}7,4/5-8[8:1],{8}1,1h[8:3],
{8},6,{4}6^3[8:1],{8}8,1,{4}27,
{16}4,5,4,5,{8}4,45,36,27,{4}18,
{6}1b/5,5/7b,3b/5,4/6b,2b/4,4/8b,

{8}17,26,{4}3-8[8:1]/5,7-4[8:1],2-6[8:1],
{4}5-2[8:1],8^3[8:1],{2}4-7[8:1]*-1[8:1],
{8}28,37,{4}4/6-1[8:1],2-5[8:1],7-3[8:1],
{4}4-7[8:1],1^6[8:1],{2}5-8[8:1]*-2[8:1],
{8}17,26,{4}3-8[8:1]/5,7-4[8:1],2-6[8:1],
{4}5-2[8:1],8^3[8:1],{2}4-7[8:1]*-1[8:1],
{8}8,17,26,35,{4}4^1[4:1],1p4[16:5]*<5[16:5],
{2},{8},{16}4,5,4,5,4,5,

{4}3h[4:5],4,4,4,
{4}4,4,{16}34,,,45,,,{8}56,
{4}6h[2:3],5,5,5,
{4}5,5,5^2[8:1],7,
{8}5,6,7,2,3,7,6,2,
{8}1,8,7,4,5,6pp5[4:3]/2pp1[4:3],,,
{1},
{4}13,68,{8}5,4,{4}13,

{4}6h[4:5],5,5,5,
{4}5,5,{16}56,,,45,,,{8}34,
{4}3h[2:3],4,4,4,
{4}4,4,4^7[8:1],2,
{8}4,3,7,6,5,2,3,7,
{8}8,1,2,3,{4}3-8[8:1],{8}6,6,
{4}57,24,68,13,
{8}4,5,{4}6h[4:1]/8p3[8:1],,12,
{8}78,78,6,5,4,3,12,12,
{8}3,4,5,6,{4}6-1[8:1],{8}3,3,
{4}24,57,12,{8}78,7/8^3[8:1],
{8},5^8[8:1],,2^5[8:1],,7,{4}7b,

{8}6,5,47,3,4,25,1,8,
{8}27,6,5,47,3,4,25,1,
{4}1-4[8:1],5-2[8:1],3-8[8:1],6-1[8:1],
{4}4-7[8:1],8-5[8:1],4-1[8:1],8,
{8}3,4,25,6,5,47,8,1,
{8}27,3,4,25,6,5,47,8,
{4}8-5[8:1],3-7[8:1],6-2[8:1],4-1[8:1],
{8}8,8h[4:1],,1,27,36,{4}45,

{4}1h[4:1],2h[4:1],3h[4:1],{8}4,25,
{8},56,{4}47,{2}1-6[8:1]/2-5[8:1],
{4}47,{8}25,25,,36,{4}36,
{2}7-4[8:1]/8-3[8:1],{4}25,47,
{4}8h[4:1],7h[4:1],6h[4:1],{8}5,47,
{8},34,{4}25,{2}4-1[8:1]/5-8[8:1],
{4}2-6[8:1],1-5[8:1],8-4[8:1],7-3[8:1],
{4}6-2[8:1],5-1[8:1],4-8[8:1],3-7[8:1],
{8}1-5[8:1],1,8-4[8:1],8,1-5[8:1],1,8,8,
{32}1,2,3,4,5,6,7,8,1,2,3,4,5,6,7,8,{2}1b,

{4}3-8[8:1]/7-4[8:1],37,2b/6b,{8}48,7,
{8}6,3,2,1-5[8:1]/5,,8,8,8,
{8}4,3,2,5,6,7,18,2/7-3[8:1],
{8},4-7[8:1],,8-4[8:1],,3,2,1^4[8:1],
{8},7,6,5,4,3,6,5^8[8:1],
{8},1,2,3,7,6,{4}1-4[8:1]/5-8[8:1],
{4},{8}37,3p6[8:1]/7,,5<4[16:5],{4},
{4},{8},2b/7b,,48,48,48,

{4}2-5[8:1]/6-1[8:1],26,3b/7b,{8}26,2-6[8:1]/6,
{8},5-2[8:1],,1-5[8:1],,6,7,8,
{4}5^2[8:1],{8}1,1^6[8:1],,3,,5^7[8:1],
{8},1^3[8:1],,8h[4:1],,1,2,3^6[8:1],
{8},8,7,1,2,6,7,8-4[8:1],
{8},1,2,8,7,3,2,1-5[8:1],
{8},8,{4}7-3[8:1],5<4[16:5],{8}1,1,
{4},36,{12}2,4,3,7,5,6,
{4}3^8[4:1],8^5[4:1],5^2[4:1],{8}8,8h[8:3],
{4},2^5[4:1],5^8[4:1],8^3[4:1],
{1}3qq5[8:5],
{8}45,45,{8},{16}1,8,{8}27,2b/7b,{4},

{8}8-3[8:1],1,{4}2,3/4-7[8:1],{8}1,1h[8:3],
{8},3,{4}3^6[8:1],{8}1,2,{4}38,
{16}6,5,{8}6,2-5[8:1],2,7-4[8:1],7,1-5[8:1],1,
{8}8-4[8:1],8,3,3,8,1,{4}27,
{8}1-6[8:1],8,{4}7,5-2[8:1]/6,{8}8,8h[8:3],
{8},6,{4}6^3[8:1],{8}8,7,{4}16,
{16}3,4,3,4,{8}3,7,8,1,2,3,
{12}5,4,5,2,4,3,7,5,6,4,5,4,
{4}6-1[8:1],2,3-8[8:1],7,
{4}5-1[8:1],4-8[8:1],5,{8}1bp4[2:3],1b<5[8:11],
{1},
{1},
E

Re:MASTER


  • よろしくお願いします -- 大坂若菜 (2023-01-03 19:41:22)
名前:
コメント:

タグ:

+ タグ編集
  • タグ:
最終更新:2026年10月01日 20:29