アットウィキロゴ

LOSER

&title=月光乱舞 [GRV]
&freemsg=わた
&wholebpm=186
&lv_5=13+
&seek=0.0
&wait=0.63
&inote_5=
(186){8}
,,,,2,6,4-8[8:1],8,

4/2h[4:1],,,24,7,3,5-1[8:1],1,
5/7h[4:1],,,57,4,8,2^5[8:1],6,
28,7^2[8:1],6,57,4^7[8:1],3,4/2-5[8:1],1,
2/8h[4:1],,,28,,1/7b,1b/7-3[8:1],,
7/5-2[8:1],,5/7-4[8:1],,7/5-1[8:1],,5/2-6[8:1],,
2/4-7[8:1],,4/2-5[8:1],,2/4-8[8:1],,4/1^4[8:1],,
1/5^8[8:1],6,15,2,{16}7,3,8,4,{32}1-6[8:1],2,3,4,5,6,7,8,
{8}
1b/2-5[8:1],,1/2b,,{32}8-4[8:1],7,6,5,8,1,2,3,{4}8b,

{16}
1/#7-C-B4-A5[8:1],,8,,7/1^4[8:1],,2,,1/8h[8:1],,,1h[8:1]/7h[8:1],,,26,,
8/#2-C-B5-A4[8:1],,1,,2/8^5[8:1],,7,,8/1h[8:1],,,2h[8:1]/8h[8:1],,,37,,
2h[8:1],,4-1[8:1],3h[8:1],,5h[16:1],4,,7h[8:1],,5-8[8:1],6h[8:1],,4h[16:1],5,,
2h[8:1],,7,7h[8:1],,1-4[16:1],1,,1b/8-5[16:1],,,1/8b,,,1b/8b,,
2-6[8:1]/4-6[8:1],,1,,24,,,,5-3[8:1]/7-3[8:1],,8,,57,,,,
5/4-2[8:1],,1,,4/5-7[8:1],,8,,45,,1,1,,8,7,6,
15,48,,2h[8:1]/6h[8:1],,,45,36,27,,5,3,7,1,2,3,
48,15,,3h[8:1]/7h[8:1],,,18,27,36,4,5,3,6b,2b,7b,1b,

{8}
8h[8:7],,6,6,,4,,2-7[8:1],
12,,6-3[8:1],6/5q2[8:1],,5,,8,
8/1h[8:7],,3,3,,5,,7-2[8:1],
78,,3-6[8:1],3/4p7[8:1],,4,,1,
8-5[8:1],8,2-6[8:1],2,7-3[8:1],7,1-4[8:1],1,
1/8-5[8:1],8,8/2-6[8:1],2,2/7-3[8:1],7,7/1-4[8:1],1-5[8:1],
1-6[8:1],1-7[8:1],1-3[8:1],1-4[8:1],1-5[8:1],1-6[8:1],1,1,
,,3h[999:1],4h[999:1],5h[999:1],6h[999:1],7h[999:1],8h[999:1],
7b/1h[999:1],2b/4h[999:1],5b/7h[999:1],8b/2h[999:1],3b/6b,1h[999:1],1h[999:1],,

{16}
8h[16:1],,2,2h[999:1],5,4,7h[16:1],,3,6h[999:1],1h[16:1],,7,2h[999:1],5,4h[16:1],
,6,2h[16:1],,8,8h[999:1],3h[16:1],,7,4,4,5h[999:1],2h[16:1],,6,4h[999:1],
7h[16:1],,3,5h[16:1],,1h[999:1],6h[16:1],,2,2h[999:1],8h[16:1],,4,7h[999:1],3,5,
4h[16:1],,6,6h[999:1],2,7h[16:1],,4,5h[16:1],,2,2h[999:1],6,3h[16:1],,8,
1h[16:1],,7,7h[999:1],4,5,2h[16:1],,6,3h[999:1],8h[16:1],,2,7h[999:1],4,5h[16:1],
,3,7h[16:1],,1,1h[999:1],6h[16:1],,2,5,5,4h[999:1],7h[16:1],,3,5h[999:1],
2h[16:1],,6,4h[16:1],,8h[999:1],3h[16:1],,7,7h[999:1],1h[16:1],,5,2h[999:1],6,4,
5h[16:1],,38,,45,,16,,#2-C-B5-A4[8:1]/#7-C-B4-A5[8:1],,45,,2b/7b,,,,

18,7,,34,2,,6/#7-5-1[4:1],,,,7,,2,,4,,
56,4,,18,7,,34,,{12}6/1-5[8:1],27,38,{16}14,,,,
18,2,,56,7,,3/#2-4-8[4:1],,,,2,,7,,5,,
34,5,,18,2,,56,,38,,6,,18,27,36,45,
6/3p7[8:1],,3,,4,,4,,3/6q2[8:1],,6,,5,,5,,
7/#2-4-6[8:1],,2,,1,,1,,2/#7-5-3[8:1],,7,,8,,8,,
46,5,,46,5,,46,,35,4,,35,4,,35,,
26,,26,,37,,37,,48,37,26,15,48,15,26,37,

{1}
8b/4p1[4:3],
{8}
,,,,,,6h[8:1],5h[8:1],

4h[4:2],,,,2z6[8:3],,,,
7h[4:1],,#8-C-B3-A2^A1-B8-C-A3[8:5],8,,7,,6,
,5h[8:1],4h[8:1],3h[8:1],4h[8:1],5h[8:1],6z2[4:2],6h[8:5],
,,,,,,3h[8:1],4h[8:1],
5h[4:2],,,,7s3[8:3],,,,
2h[4:1],,#1-C-B6-A7^A8-B1-C-A6[8:5],1,,2,,3,
,4h[8:1],5h[8:1],6h[8:1],5h[8:1],4h[8:1],3s7[4:2],3h[8:5],
,,,,,,45,36,

2-8[8:1]/7-3[8:1],,7,,8-4[8:1]/3-1[8:1],,3,,
4h[4:1]/1-5[8:1],,1,2-6[8:1],,2^5[8:1]/6^1[8:1],,26,
,7h[8:1],5h[8:1],3h[8:1],2h[8:1],4h[8:1],6h[8:1],8h[8:1],
1-5[8:1],,1,,{16}46,,,25,,,37,,
16,,7,,38,,7,6,25,,3,,47,,3,2,
16,,7,,38,7,16,,2,3,47,,3,2,16,,
{32}
5,6,7,8,1,2,3,4,5,6,7,8,1,2,3,4,1,8,7,6,5,4,3,2,1,8,7,6,5,4,3,2,
{8}
1,8h[8:1],,8h[8:1],{32}4-8[8:1],3,2,1,4,5,6,7,{16}4b,,,,

17,,3-7[8:1],4,,1,3,,8-3[8:1],,6,2,8,,4,,
35,,7-3[8:1],8,,5,7,,4-7[8:1],,2,6,4,,8,,
1-5[16:1],,4,1-3[16:1],,6,1,,8-4[16:1],,5,8-6[16:1],,3,8,,
1^4[16:1],,1,5^8[16:1],,5,2-7[16:1],,2,,6-3[16:1],6,,1,1,,
28,,6-2[8:1],5,,8,6,,1-6[8:1],,3,7,1,,5,,
46,,2-6[8:1],1,,4,2,,5-2[8:1],,7,3,5,,1,,
8^5[16:1],,8,4^1[16:1],,4,7-2[16:1],,7,,3-6[16:1],3,,8,8,,
5/4h[999:1],3/6h[999:1],7/2h[999:1],1/8h[999:1],2h[999:1]/7-4[8:1],,7h[999:1]/2-5[8:1],,,,,,8,,1,,

37,,6-8[16:1],5-1[8:1],,6,,5,,7,6,5,4,8,3,7,
26,,3-1[16:1],4-8[8:1],,3,,4,,2,3,4,5,1,6,2,
37,,2,1,,48,,56,,8,7,6,5,4,3,2,
15,26,37,48,15,,48,37,2v5[8:1]/6v1[8:1],51,48,,2b/6b,,,,
26,,7,8,,15,,34,,1,2,3,4,5,6,7,
48,37,26,15,48,,15,26,3v8[8:1]/7v4[8:1],84,15,,3b/7b,,,,
{32}
5h[4:1],,,,8,1,2,3,4h[4:1],,,,1,8,7,6,5,,,,{24}78,16,25,34,,,56,47,38,
{16}
1b/2-6[8:1],,,,3/2b,,,,7h[999:1],5h[999:1],4h[999:1],2h[999:1],1b/8b,,,,

6/1h[4:1],5,4-2[8:1],,6-8[16:1],,4,6,,,7,8,6,1,5,,
3/8h[4:1],4,5-7[8:1],,3-1[16:1],,5,3,,,2,1,3,8,4,7,
5,4,3,7,6,5,1,2,3,7,8,1,5,,37,,
4,5,6,2,3,4,8,7,6,2,1,8,4,,26,,
7/4h[4:1],6,5-3[8:1],,7-3[16:1],,5,7,,,2,1,3,8,4,,
2/5h[4:1],3,4-6[8:1],,2-6[16:1],,4,2,,,7,8,6,1,5,2,
34,5,6,78,1,2,34,,2,7,3,6,45,36,27,1/8-4[16:1],
,,{32}8b/1-5[16:1],2,3,,,,1b/8-4[16:1],7,6,,,,8b/1-5[16:1],2,3,,,,8/1b,7,{16}6,,,,

27,36,4/5-1[8:1],,7/2-5[16:1],,5,2,,,6,3,8,1,6,,
27,36,5/4-8[8:1],,2/7-4[16:1],,4,7,,,3,6,1,8,3,6,
5-2[16:1],,5,6-1[16:1],,6,4-8[16:3],,4,#8-2-5[8:1],,7,6h[8:1],,,,
4-7[16:1],,4,3-8[16:1],,3,5-1[16:3],,5,#1-7-4[8:1],,2,3h[8:1],,,,
25,36,7/4-7[8:1],,1/8-3[16:1],,4,8,,,6,1,8,3,6,,
47,36,2/5-2[8:1],,8/1-6[16:1],,5,1,,,3,8,1,6,3,8,
1^4[16:1],,1,8^5[16:1],,8,1,,2,3,4,5,48,37,26,15,
4-7[16:1]/8-3[16:1],,,4/8-5[16:1],,,8/4-1[16:1],,,4/#8-6-2[4:1],,,8/4-2[16:1],,,,

{1}
4b,,
E

タグ:

+ タグ編集
  • タグ:
最終更新:2021年02月12日 23:00