BASIC
ADVANCED
EXPERT
MASTER
(180)
{0.5}7p4[4:7],2q5[4:7],6q8[4:7],{1}1w5[2:1],{8},,,3x/7x,{2},
{4}4/6h[2:3],E2,E4,C,E6,E8,C,1x/8x,3h[2:3]/6,E8,E6,C,E4,E2,C,2x/7x,
{8}E2,E3,E4,E5,E6,E7,E8,E1,E4,E3,E2,E1,E8,E7,E6,E5,
{1}B2/B3/B6/B7/Cf,{8},,,1h[4:1]/8h[4:1],{4},2z6[4:1]/7s3[4:1],,,
{16}2h[8:1]/4h[8:1],,,3h[8:1]/5h[8:1],,,{8}4/6h[4:1],,5,4h[4:1]/7,,6,57,,,{2}5v3[8:1]/6v3[8:1],
{16}2h[8:1]/4h[8:1],,,1h[8:1]/3h[8:1],,,{8}2h[4:1]/4,,3,{4}24,12,3z7[4:1]/8s4[4:1],,,
{16}5h[8:1]/7h[8:1],,,4h[8:1]/6h[8:1],,,{8}3h[4:1]/5,,4,2/5h[4:1],,3,24,,,{2}6q3[8:1]/7q3[8:1],
{16}5h[8:1]/7h[8:1],,,4b/8b,{8},,56,7,34,2,18,7,{4}1z5[4:1]/6s2[4:1],,,
{16}2h[8:1]/4h[8:1],,,3h[8:1]/5h[8:1],,,{8}4/6h[4:1],,5,4h[4:1]/7,,6,57,,,{2}6q3[8:1]/7q3[8:1],
{16}2h[8:1]/4h[8:1],,,1h[8:1]/3h[8:1],,,{8}24,,27,{16}1,8,2,7,{2}1w5[8:1],
{8}3h[8:3],4,5,6h[4:1],5,4,3,2h[8:7]/5,,4,3,4,5,6,7,3/8h[8:7],,
4,5,6,7,6,5,4h[4:1]/8,,5,36,2/7h[4:1],,1,2b/6b,,
1>6[8:5],,,,B2/B3,,,8,,8,8^5[8:3],,B6/B7,,,,1>6[8:5],,,,B2/B3,,,8,,8,8^5[8:3],,B6/B7,,,,
4>7[8:5],,,,B3/B4,,,5,,5,5^8[8:3],,B5/B6,,,,4>7[8:5],,,,B3/B4,,,5h[8:3],,,4,45,,,2x/7x,,
48,8,2/8<3[8:3],,B6/B7,,,1,,1,1^4[4:1],,B2/B3,,8,,58,8,2/8<3[8:3],,B6/B7,,,1,,1,1^4[4:1],,B2/B3,,1,,
48,4,4>7[8:3]/6,,B2/B3,,,5,,5,5^8[4:1],,B6/B7,,4,,14,4,4>7[8:3]/7,,B2/B3,,,6<6[8:13]*>6[8:13],
{0.5},2V48[8:11]*V84[8:11]/Cf,{1}7-5[2:1]*V15[4:5]/Cf,{2},{16}6h[8:1],,,6h[8:1],,,57,,
{2}3<7[1:1]*>7[1:1]/Cf,,,6h[16:3],7^5[4:1]*>5[1:1]/Cf,,
{16}7x,8x,1x,2x,3x,4x,5x,6x,3x,2x,1x,8x,7x,6x,5x,4x,
{8}3x/7x,,57,6,45,3,2/4h[4:1],,2,3,45,6,57,8,17,,45,,24,3,45,6,5h[4:1]/7,,7,6,45,3,24,18,2b/7b,,
78,78,16,16,25,25,34,34,12,12,38,38,47,47,56,56,{16}7,8,6,1,5,2,4,3,1,2,8,3,7-3[8:1],4,6,5,{4}7b,,,
2-5[8:1]/6pp4[2:1],26,,{8}1,{4}1>7[8:3],1x/6hx[8:3],,{8},
{16}1h[8:1]/5h[8:1],,,3h[8:1]/7h[8:1],,,48,,2h[8:1]/5h[8:1],,,4h[8:1]/7h[8:1],,,1/5V74[4:1],,
{8},4V61[8:3],3,{4}2-6[8:1],2x,4b/8b,{16},,3,4,3,,
{8}16,2,3,48,7,6,25,3,4-8[8:1],4,7-3[8:1],7,1-5[8:1],1,8,8,
12,3,45,6,78,1,28,{4}3-8[8:1]/7-4[8:1],37,2b/6b,{8},
{4}3qq5[2:1]/7-4[8:1],37,,{8}8,{4}8<2[8:3],3hx[8:3]/8x,,{8},
{16}4h[8:1]/8h[8:1],,,2h[8:1]/6h[8:1],,,15,,4h[8:1]/7h[8:1],,,2h[8:1]/5h[8:1],,,4V25[4:1]/8,,
{8},5V38[8:3],6,{4}7-3[8:1],7x,1b/5b,{16},,6,5,6,,
{8}38,7,6,15,2,3,47,6,5-1[8:1],5,2-6[8:1],2,8-4[8:1],8,1,1,
2b/6b,3,48,7,1b/6b,27,38,1bw5[8:1]/5b,,,,B3/B7/E3/E4/E7/E8/Cf,{1},{4},3x/6x,
{2}4s8[4:1]/8,{8}6h[8:5],,,5,,5,4/7h[4:1],,6,58,,,
{2}5v3[8:1]/7p3[8:1],{16}2h[8:1]/4h[8:1],,,1h[8:1]/3h[8:1],,,{8}2h[4:1]/4,,3,{4}14,28,37,
{2}1/5z1[4:1],{8}3h[8:5],,,4,,4,2h[4:1]/5,,3,14,,,
{2}2q6[8:1]/4v6[8:1],{16}5h[8:1]/7h[8:1],,,4b/8b,{8},,34,2,56,7,38,27,16,,
{2}4s8[4:1]/8,{8}6h[8:5],,,5,,5,4/7h[4:1],,6,58,,,
{2}5v3[8:1]/7V53[8:1],{16}2h[8:1]/4h[8:1],,,1h[8:1]/3h[8:1],,,{8}2/4h[4:1],,2,1h[4:1]/3,,
{16}4,5,6,7,1z5[4:1]/8,2,3,4,{2}15,1h[8:5],{8},7,68,4,2,13,45,17,{1}2h[4:3]/6h[4:5],
{16}2x,1,8,7,,5,4,3,7x,8,1,2,3,4,5,6,
{1}3b>4[4:11]/7h[1:3],,,,,,,,,,,,,,,
E
Re:MASTER
最終更新:2026年03月29日 13:23