| アーティスト |
*Luna feat.NORISTRY |
BASIC
ADVANCED
EXPERT
MASTER
(192)
{1}3<2[2:5]/5h[2:1],4h[2:1],3h[2:1],
{8}3,3,,24,,3h[4:1]/5h[4:1],,,46,{4}46,24,57,
1h[4:1]/5,{8}8,1,,27,,4/5-1[2:1],4/5h[8:5],,,,,,,,
{4}27,7/8w4[8:1],{32}8,B8,C,B4,{8},,,,
25,3,4,57,6,5,3,2/4h[4:1],,1,2,3,7,6<4[4:1],3,2h[8:3],
{2},{8}2x,{4}2x,1-6[8:1],1/7-3[8:1],5-1[8:1]/7,58,{8},
28,3,4,35,2,1,6,5h[4:1]/7,,8,7,1,2,7<1[4:1],1,3h[4:1],
,4,3,6,7,2,1,6h[4:1]/8,,2,13,,18,2b/7b,,
{4}6,57,{8}3,3,{4}24,6,B5/B7,{8}3,3,{4}B2/B4,
6,57,{8}3,3,{4}24,8-4[8:1],4>6[4:1],{8}1,1h[4:1],,,
{2}1-5[8:1],{8}6,6,{4}7/B5,3,2/B4,{8}6,6,B5/7,,24,
{16}3,3,{8}3,24,6,5,4,3h[4:1],,{16}E7,B6,{8}B5,C,,2b/7b,,
{4}1-5[8:1],7,{8}6-8[8:1],6,{4}4,3-1[8:1],8,{8}6-4[8:1],6,{4}3,
1-7[8:1],6,{8}4-6[8:1],4,{4}2,1-5[8:1],{8}7,7<2[4:1],,3,,,
1-5[8:1],,8,7,6h[4:1],,2,3,4h[4:1],,7,56,,,2,3/4>5[2:1],
{4}12:1],,,1s5[4:3],,,,,45,2x/7x,
{12}6,5,6,3,4,3,7,6,7,2,3,2,{6}8,17,26,
{4}4h[6:1]/5h[6:1],36,{12}3,3,4,6,6,5,2,2,4,7,7,5,{6}1,28,37,
{2}4q5[1:1]/6h[1:1],,,3x/6x,
{6}2/4h[12:1],3/5h[12:1],4/6h[12:1],6/7h[12:1],4/5h[12:1],2/3h[12:1],
1/4h[12:1],3/6h[12:1],5/8h[12:1],4/7h[12:1],2/5h[12:1],1/8h[12:1],
{8}2h[4:1]/7h[4:1],,,4h[4:1]/5h[4:1],,,{4}18,2b/7b,,
{16}7,8,1,2,{32}1,8,7,6,5,4,3,2,
{8}1-5[8:1],,7-3[8:1],7,4-1[8:1],4,6-2[8:1],6,8,
{4}8^3[8:1],4-8[8:1]/8,2-6[8:1],4,,1b/2b,
{8}8,8,17,6,45,3,28,28,B3/E3,B7/E7,B5/E5,{16}Cf,,,1b,,,2b/8b,,
{4}3b/4h[4:5],,E7,E8,E1,E2,E3,6<3[4:3],E8,E1,E2,E3,{16}4,,,26,,,18,,{2}2b/7b,
{8}8-4[8:1],,2-6[8:1],2,5-8[8:1],5,3-7[8:1],3,1,
{4}1^6[8:1],1/5-1[8:1],5/7-3[8:1],7b/8b,
{8}1,1,28,3,45,6,1,17,1/7-4[8:1],,4V61[4:1],2-6[8:1],,2b,,8,37,2,
{4}15,3-8[8:1]/4-8[8:1],34,5-1[8:1]/6-1[8:1],56,{8}4-1[8:1]/5-8[8:1],36,45,,
27,2h[2:1]/7h[2:1],,,,,1x/8x,,{16}4,5,{8}4,36,2-5[8:1]/7-4[8:1],,2b/7b,,,
1h[8:1],5,5,2h[8:1],6,6,3h[8:1],7,7,4h[8:1],8<4[4:1],8,
{4}4>8[4:1],8<4[4:1],4>8[4:1],8,{8}4,5,6,
{4}5/7h[4:1],1h[4:1],{8}3,24,3/5<4[4:1],46,5/7h[4:1],{2},
{12}8,8,8,6,6,6,4,4,4,2,2,2h[24:5],{16},,4,5,6,7,8,1,
3,4,3,4,2,5,2,,1,6,1,6,8,7,8,7,17,,,48,,,2b/7b,,{2},
{8}5x,5,4h[1:1]/6,,7x,7,,3x,3,,6x,6,,3,34,,
2x/5h[1:1],,6,6x,,3,3x,7,7,,6,5,4,3x,4,
3x/6x,,6,6,5/7x,,3,24,,6,5/7x,,3,2/4V68[2:1],,Chf[1:2],
,,,,,,,8h[4:1],,1,{4}8,27,36,
{8}4,4,45,,3x/5-7[8:1],,2,2-4[8:1],,8,8,,5/7x-2[8:1],,4,,
3,3,35,,2x-4[8:1]/4,,5,5-7[8:1],,2,2,,3/8x-4[8:1],,4,,
3,3,5,,4x-2[8:1]/6,,7,7-5[8:1],,1,1,,2x-6[8:1]/4,,7,,
8,1,7,2,6,3>6[4:1],,5h[8:3],{4},,4-1[8:1]/5-8[8:1],4x/5x,
7^4[4:1],4^1[4:1],1^6[4:1],6,2^5[4:1],5^8[4:1],8^3[4:1],3,
7<3[4:1],3>7[4:1],7<3[4:1],3>7[4:1],7s3[4:1],,1x-5[8:1],5,
7^4[4:1],4pp2[4:1],2<6[4:1],8,2^5[4:1],5qq6[4:1],8,8,
{16}47,,6,5,6,,25,,3,4,3,,48,,6,5,6,,15,,3,4,3,,8,1,8,1,2b/7b,,,,
{8}6,6,6h[4:1],4,4,4h[4:1],5,5,5h[4:1],3,3,3,{12}7,5,6,2,4,3,
{0.25}Cf,{2},6h[2:1],5h[2:1],4h[2:1],3h[4:3],6h[4:1],
{16}24,,,57,,,18,,{2}1-4[8:1]/8-5[8:1],
{8}B3/B6/Cf/E3/E7,,8,1>7[2:1]/7,6,17,8,1,1v4[8:1],,13,,2-6[8:1],4,2b,
,7,1,28,4,35,8,17,{6}3b/4b,5b/6b,1b/8b,5b/7b,2b/4b,1b/8b,
{4}3b/6b<3[4:5],,E4,E2,C,E8,E6,7w3[8:1],7,
{8}15,1,26,2,37,3,{16}48,,,24,,,57,,{2}2b/7b,
{8}1-5[8:1]/8,,16,7,4/8<2[4:1],3,28,1,8,8v5[8:1],,68,,7-3[8:1],5,7b,,
,1,1hx[8:1]/5,4,1hx[8:1]/6,5,1x-4[8:1]/7,6,1x/8,,6,57,,26,,1xV38[2:1]/2,
{4}1hx[2:1]/8,,,3/7-4[8:1],2-6[8:1]/7,2.5v8[8:1],4-1[8:1]/5,47,
{8}2b/6b,4,5,3b/7b,5v8[8:1]*p8[8:1],4,{4}5b<4[4:3],,Cf,,,
{8}2-5[8:1],1,2,7-4[8:1],8-3[8:1],7^2[8:1],8,7,,5-1[8:1],6<4[4:1],5,
6,4<8[4:1],8V24[4:1],4,{8}1,
{4}1-5[8:1]/2,1^4[8:1]/8,1^6[8:1],8,1V37[8:1]/2,{8}8,{4}8-3[8:1]*-5[8:1],8,
{8}2-6[8:1],6,2,8>6[4:1],4,8,,8,7-3[8:1],3,7,1<3[4:1],5,1,,
1,2-6[8:1],6,2,7,1/5v2[8:1],3,5x/7,,8,17,,34,1/6<4[8:1],,
{32}5b,E7,E8,E1,E2,E3,E4,,
{1},,,,,,,,
E
Re:MASTER
最終更新:2026年07月20日 01:57