| アーティスト |
DiGiTAL WiNG feat. 花たん |
BASIC
(150.0){1},,,,
{2}4,4,
{2}5,5,
{2}4,5,
{1}4b/5b,
{1}3,
{1}3,
{2}2,2,
{4}2,2,2,,
{2}1,1,
{4}8,8,8,,
{2}1/8,1/8,
{4}1,1,1b,,
{4}8,8,8b,,
{2}7,7,
{2}6,6,
{2}5,5,
{4}4,4,4,,
{2}3,3,
{2}2,2,
{2}1,1,
{1}1h[4:3]/8h[4:3],
{2}1,1,
{2}2,2,
{2}3,3,
{2}4/5,4/5,
{2}5,5,
{2}6,6,
{2}7,7,
{2}1/8,1/8,
{1}2x/7x,
{2}6,6,
{4}6,6,6,,
{2}5,5,
{4}5,5,5,,
{2}4,4,
{4}4,4,4,,
{2}3,3,
{1}3b/4b,
{2}B4,B5,
{2}B3,B6,
{2}B4,B5,
{1}C1,
{2}B8,B1,
{2}B7,B2,
{2}B8,B1,
{1}C1f,
{1}1/2,
{1}7/8,
{2}1/2,1/2,
{4}7x/8x,7x/8x,7x/8x,,
{4}6,6,6,,
{4}5,5,5,,
{2}3/4,5/6,
{4}3/4,3/4,3b/4b,,
{4}5,5,5,,
{4}6,6,5/6,,
{4}7,7,8,8,
{4}1,8,1,,
{4}2,2,2,,
{4}3,3,3/4,,
{2}3/4,5/6,
{4}3/4,3/4,3b/4b,,
{4}5/6,5/6,5b/6b,,
{1}7-3[4:3],,
{1}2-6[4:3],,
{4}5,5,5,,
{1}4h[2:1]/6h[2:1],
{4}4,4,4,,
{1}3h[4:3]/5h[4:3],
{4}3,3,3,,
{4}4,4,4,,
{4}5,5,5,,
{4}6,6,5x/6x,,
{4}6,6,6,,
{4}5,5,5,,
{4}4,4,4,,
{4}3,3,3x/4x,,
{1}4b/5b,
E
ADVANCED
(150.0){4}3,3,4,4,
{4}5,5,4/5,,
{4}6,6,5,5,
{4}4,4,3/5,,
{4}2,2,1,1,
{4}8,8,1/7,,
{4}8,8,1,1,
{1}2b/7b,
{1}1x-4[2:1],
{1}5x-8[2:1],
{1}1x-5[2:1],
{4}6x,6x,5x/6x,,
{1}7x-3[2:1],
{1}2x-6[2:1],
{4}7x,7,8,8,
{4}1/8,1/8,2b/7b,,
{4}4/5,4/5,3b/6b,,
{2}2h[2:1],3h[2:1],
{4}4,4,4/5,,
{2}7h[2:1],6h[2:1],
{4}5,5,4x/6x,,
{2}6h[2:1],7h[2:1],
{4}8,8,1/8,,
{4}2,1,8,7,
{4}1x/8x,1x/8x,2x/7x,,
{4}3,3,4,4,
{2}5/6,4/7,
{4}7,7,8,8,
{2}1/8,2x/7x,
{4}3,3,2,2,
{4}1/2,1/2,1/2,,
{4}7,7,6,6,
{4}5/6,5/6,4x/7x,,
{1}C1f,
{2}B5/B6,B3/B4,
{4}E7,B7,B8,,
{2}B2/B3,B6/B7,
{1}Ch[2:1],
{4}E7,B6,B5,,
{4}E3,B3,B4,,
{2}E4/E6,E3/E7,
{1}C1f/B2/B7,
{4}3,4,4/5,4/5,
{4}6,7,7/8,7/8,
{4}1,2,1/2,1/2,
{2}3h[4:1]/8h[4:1],3x/8x,
{4}2,1,1/8,1/8,
{4}7,6,5/6,5/6,
{4}4,3,2/5,2/5,
{4}3/4,5/6,4x/7x,,
{1}5h[2:1]/6h[2:1],
{1}3h[2:1]/4h[2:1],
{1}1h[2:1]/2h[2:1],
{4}7/8,7/8,1x/6x,,
{1}7h[2:1]/8h[2:1],
{1}5h[2:1]/6h[2:1],
{4}4,4,5,5,
{4}4/5,3/6,2b/7b,,
{4}1/2,3/8,7/8,1/6,
{4}1/2,3/8,4x/7x,,
{8}7,7,7,,1,1,1,,
{4}8,7,1x/6x,,
{4}5/6,4/7,3/4,2/5,
{4}5/6,4/7,3x/8x,,
{8}2,2,2,,8,8,8,,
{4}1/2,3/8,4b/7b,,
{4}7/8,1/6,2b/5b,,
{4}2,2,2h[2:1],,
{4}1,1,2/8,,
{4}7,7,7h[2:1],,
{4}8,8,1x/7x,,
{4}6,6,6h[2:1],,
{4}5,5,4/7,,
{2}3h[4:1]/4h[4:1],5h[4:1]/6h[4:1],
{4}4/5,3/6,2x/7x,,
{1}1^4[2:1],
{1}5^8[2:1],
{1}1-5[2:1],
{4}6,6,5x/7x,,
{1}6^3[2:1],
{1}2-6[2:1],
{1}7-3[2:1],
{1}1-5[2:1],
{1}4/6,
E
EXPERT
(150.0){4}3h[4:7],4,4,5,
{4}4,4,5,5,
{4}6h[2:3],5,5,4,
{4}5,5,4,3/5,
{4}2h[2:1],4,4,5,
{4}7h[2:1],5,5,4/6,
{4}3/4,4/5,5/6,4/5,
{1}C1/B2/E3/B7/E7,
{1}4h[2:1]/5-8[2:1],
{1}5h[2:1]/4-1[2:1],
{1}4h[2:1]/5^8[2:1],
{4}4/8,5/7,6,8b,
{2}1h[4:1]/7h[4:1],2h[4:1]/8h[4:1],
{8}3,3,5,5,4,,4/5,,
{2}5h[4:1]/7h[4:1],2h[4:1]/4h[4:1],
{8}B6/B7,,B2/B3,,B4/B5,,1x/8x,1x/8x,
{2}1x-4[8:1]/8x-5[8:1],3b/6b,
{4}3^6[4:1],,7,7,
{4}6^3[4:1],,2,2,
{4}3,3/4,6,5/6,
{4}7,5,4,1b,
{4}7^4[4:1],,3,3,
{4}2^5[4:1],,6,6,
{4}7h[4:1],8,2h[4:1],1,
{4}2/4,4/5,5/7,1b,
{8}3,3,4,,2/5,,3/4,,
{8}6,6,5,,4/7,,5/6,,
{8}3,3,4,,1/2,,8h[4:1]/1-5[4:1],,
{4},,6,5x/6x,
{8}7,7,8,,1/6,,7/8,,
{8}2,2,1,,3/8,,1/2,,
{8}3,3,4,,4/5,,5/6,,
{8}4hx[4:1]/7hx[4:1],,,,6,6,5,,
{1}C1f/B2/B7,
{4}3h[4:5],4,4,2,
{4}4,4,5,4/5,
{4}B6,B8/E8,B2,B4/E4,
{1}Ch[2:1],
{4}7h[4:5],8,8,6,
{4}8,8,6,5/6,
{4}2/7,3/4-7[4:1]*-8[4:1],,,
{1}1b/6b,
{4}2-4[8:1],8-6[8:1],1-5[8:1],8,
{4}7-5[8:1],1-3[8:1],8-4[8:1],1,
{4}2-5[8:1],8-6[8:1],1,3,
{8}3x/4x,,5x/6x,,1b/8b,2b/7b,3b/6b,,
{4}7-5[8:1],1-3[8:1],8-4[8:1],1,
{4}2-4[8:1],8-6[8:1],1-5[8:1],8,
{4}7-4[8:1],1-3[8:1],8,6,
{4}5x/6x,3x/4x,1x/8x,2b/7b,
{8}3/6,3/6,3/6h[2:1],,5,5,5,,
{4}7/5hx[16:11],6,4h[16:3],,
{8}2/7,2/7,7/2h[2:1],,4,4,4h[4:3],,
{4}2,3,5,8b,
{8}7,7,5/7,,2,2,2/4p8[4:1]*q8[4:1],,
{2},1hx[16:3]/7hx[16:3],
{8}5,5,4,6,1,1,8,2,
{2}2-6[8:1],1b/7b,
{8}3/4,2,1/8,,5/6,7,1/8,,
{4}2-5[8:1],6<3[4:1],4b,,
{8}3,3,4,2,7,7,8,6,
{2}4-1[8:1]*-7[8:1],2b/6b,
{8}5/7,8,1/2,,2/4,1,7/8,,
{4}6-1[8:1],2>7[4:1],8b,,
{8}2,2,2/8,,7,7,1/7,,
{8}B2/E3,,B7/E7,,B4/B5/E5,,1/8,1/8,
{2}2-5[8:1]/7-4[8:1],3b/8b,
{8}6,6,5,,5/7,,7/8,,
{16}7h[16:3],,,6h[16:3],,,5h[16:3],,,4,,,4x/5x,,,,
{8}3,3,4,,2/4,,2h[4:1]/1s5[2:1],,
{4},,,2b/6b,
{8}7,7,8,,1/6,,5/6,,
{16}6h[16:3],,,7h[16:3],,,8h[16:3],,,1,,,1x/8x,,,,
{8}3,3,2/4,,5,,4/5,,
{4}5/7,2/4,4/5,8b,
{4}2^5[4:1],,6,6,
{4}8/7^4[4:1],,3,3,
{4}1/2-6[4:1],,7,7,
{4}1x/6x,,3/4,4/5,
{8}5/6^1[4:1],,,,2,2,2,,
{8}4/3^8[4:1],,,,6,6,6,,
{8}4/5-1[4:1],,,,2,2,2,,
{4}8x/3hx[2:1],,E1,C1,
{1}B4/E4/B5/E6,
E
MASTER
(150)
{4}4/6h[4:7],4,4,4,5,5,5,{8}4,4,
{4}3h[4:7]/5,5,5,5,4,4,4,{8}5,5,
{4}4/6h[4:3],5,4,{8}3,3,{4}2h[4:3]/5,4,5,{8}6,6,
7h[8:1],1h[8:1],8h[8:1],2h[8:1],{16}7,6,5,4,1,2,3,4,{1}1bp4[2:1]/5bp8[2:1],
2h[4:3]/B4/Ch[4:3],7h[4:3]/B5/Ch[4:3],
{8}1,8,27,,4,5,{4}3-8[8:1]/6,3/5-1[8:1],4-8[8:1]/5,46,2b/7b,
3h[4:1],4h[4:1],5h[4:1],8,{16}1,8,,1,8,,4,5,,4,{8}5,36,,
26,37,48,15,37,26,1-4[8:1]/5,48,{4}1-6[8:1],1w5[8:1],1,
{8}8-5[8:1]*-6[8:1],8,{4}8-2[8:1]*-3[8:1],8w4[8:1],8,2b/6b,
{8}2,2,24,{16}3,4,,35,,5,4,,25,,3-6[8:2],3,,8,8,,7-2[8:1],7,,4,4,,{8}5,6,
7,7,78,{16}1,8,{8}1,27,36,5,{16}46,46,,25,25,,48,48,,16,16,,{4}8b,
{8}7,7,57,{16}6,5,,46,,4,5,,47,,6-3[8:1],6,,1,1,,2-7[8:1],2,,5,5,,{8}4,3,
2,2,12,{16}8,1,{8}8,27,36,4,{4}B7/B8/E8/Cf,B1/B2/E2/Cf,B4/B5/E5/Cf,2b/7b,
{8}5,3,{16}6,{8}6h[16:11],3,2,1,8,{16}4,{8}4,6,{16}3,{8}3h[16:11],7,8,1,2,{16}5,
{8}5,3,{16}5,{8}5h[16:11],1,8,7,6,{16}3,{8}3,5,{16}4,{8}5,3h[8:1],5h[8:1],4h[8:1],6h[8:1],{16}1,
{8}1,2,{16}7,{8}7h[16:11],3,4,5,6,{16}1,{8}1,7,{16}2,{8}2h[16:11],6,5,4,3,{16}8,
{8}8,2,{16}8,{8}8h[16:11],4,5,6,7,{16}2,{8}2,8,{16}1,{8}8,2h[8:1],8h[8:1],1h[8:1],7h[8:1],{16}3,
{8}3,4,25,{16}3,4,{8}3,45,{16}6p4[8:3],5,{8}6,
4,,3,{4}3p6[4:1],3/6<3[4:1],4,5h[4:1],{8}4,{4}4,
2p8[4:1]/8,8,{8}4,{4}7h[4:1],1,{8}3qq5[4:1]/6pp4[4:1],,,,,,8,8b,,
7p2[2:1],,5,{4}5,4,3^6[2:1],1h[4:1],{8},{4}1,8,
7h[4:1],{8}1,{4}2-5[8:1]/6-1[8:1],26,{8},{4}B3/B4/B7/B8/E4/E8/Cf,,,1^4[4:1],
4q1[4:1],1q5[4:1],5q1[4:1],1q6[4:1],6^1[4:1],1q5[4:1],5q1[4:1],1^4[4:1],
4q1[4:1],1q5[4:1],5q1[4:1],1,E6/E7,E3/E4,{8}4b/5b,4b/5b,4b/5b^8[4:1],,
{4}8q5[4:1],5q1[4:1],1q5[4:1],5q2[4:1],2^5[4:1],5q1[4:1],1q5[4:1],5^8[4:1],
8q5[4:1],5q1[4:1],1q5[4:1],5,E2/E3,E7/E8,B4/B5/E5,2b/7b,
{8}6h[4:1]/5,4,3,2h[4:1],5,6,7,{16}1,8,{4}1,1pp3[4:1]/8qq6[4:1],,,
{8}1^6[8:1],2,3,4,5^2[8:1],6,7,8,{4}1x/7x,4x/5x,2x-5[8:1]/8x-5[8:1],2b/8b,
{8}6h[4:1],7,2h[4:1],1,8h[4:1],7,3h[4:1],4,{16}6,6,,4,5,,3,3,,5,4,,{8}45,6,
56,47,38,C,78,16,2-8[8:1]/5-7[8:1],C,{4}2-4[8:1]/5-3[8:1],2/5w1[8:1],5,3b/7b,
{8}36,6,57,{16}4,5,,2,1,,38,,3,4,{8}3,3,24,{16}4,5,,7,{8}8,16,3h[2:1]/5,
2,1,8,7h[2:1],6,5,4-6[8:1],3h[8:5],{4}4-7[8:1],4-8[8:1],4,1b,
{8}2,2,13,{16}8,1,,6,{8}5,7,48,7,7,16,{16}1,8,,3,{8}4,25,1,
26,37,48,E1/E5/E6/E8,37,26,1/5-7[8:1]*-8[8:1],E1/E2/E4/E5,
{4}5-2[8:1]*-3[8:1],5w1[8:1],5,{8}4-6[8:1]*-7[8:1],4,{4}4-1[8:1]*-2[8:1],4w8[8:1],4,2b/6b,
{8}2,2,24,{16}3,4,,35,,5,4,,25,,3-8[8:1],3,,6,6,,7-4[8:1],7,,1,1,,{8}2,8,
7,7,78,{16}1,8,{8}1,24,35,46,{16}78,78,,56,56,,34,34,,12,12,,{4}3b/8b,
{8}7,7,57,{16}6,5,,46,,4,5,,47,,6-1[8:1],6,,3,3,,2-5[8:1],2,,8,8,,{8}7,1,
2,2,12,{16}8,1,{8}8,27,36,5,{4}B1/B2/E2/Cf,B7/B8/E8/Cf,B4/B5/E5/Cf,2b/7b,
3q6[2:1],5,4,5,5pp1[2:1],3,4,3,2qq7[2:1],6,5,6,{8}6^1[8:1],5,6,,3^8[8:1],4,3,,
{4}6-2[2:1],5,8,3,3-7[2:1],4,1,6,8-4[2:1],1,6,3,{8}34,34,25,25,16,16,
{16}1-5[8:1],7,3,5,1b,
{1},,,,
E
Re:MASTER
最終更新:2026年03月29日 22:12