アットウィキロゴ

ワードワードワード

アーティスト syudou

BPM BASIC ADVANCED EXPERT MASTER Re:MASTER
137 5 6 9+ 13+ -

EXPERT MASTER Re:MASTER
譜面制作者 サファ太 小鳥遊さん -

BASIC


ADVANCED


EXPERT


MASTER

(137)
{8}3,3,{16}3h[16:3],,,4,{8},5,4,5,
6,6,{16}6h[16:3],,,5,{8},3,45,,
6,6,{16}6h[16:3],,,5,{8},4,5,4,
E7,E5,E3,E1,{2}B3/B6/Chf[4:1],
{16}8,,8,,8,1h[8:1],,4h[8:1],,3,4,,25,,4,,
1,,1,,1,8h[8:1],,5h[8:1],,6,5,,47,,,,
8,,8,1h[8:1],,8,,27,,3,5,4,6p3[2:1],,,,{4},,,2b/7b,
{16}3h[16:3]/5,,,4,4,,3,3,,4,3,4,3,,6,5,
6,,4,4,,45,,34,,4,3,4,3,,3,5,
4/6h[16:3],,,5,5,,6,6,,5,6,5,6,,3,4,
3,,5,5,,45,,56,,5,6,5,6,,47,,
,,78,,16,,2,2h[8:1],,4,3,4,3,,45,,
,,12,,38,,7,7h[8:1],,5,6,5,6,,45,,
,,18,,27,,3,3h[8:1],,5,4,5,4b,,,6hx[16:5],
,,5,,B4/E5,,,2h[16:5],,,3,,B4/E4,,,7h[16:5],
,,6,,B5/E6,,,3h[16:5],,,4,,B5/E5,,,8h[16:5],
,,6,,B7/E7,,,1h[16:5],,,3,,B2/E3,,,7,
,7,8,B3/B4/E5,,,2,,2,,1,,B5/B6/E5,,,7h[16:5],
,,8,,B6/B7,,,2h[16:5],,,1,,B2/B3,,,6h[8:1],
,5,6,5,6,,18,,3b/6b,,,,5,4,,5hx[16:3],
{8},3,45,6,45,3>6[4:1],4,5h[8:3],,,,,45,45,Cf/E3/E7,,
1x-5[8:1]/8x,2,1/7-4[8:1],8,17,2,38,2,
1/8-4[8:1],7,2-5[8:1]/8,1,28,7,16,5,
2xqq5[4:1],3,4,5,7xp4[4:1],4,3,2,
{16}1,,5x/7x,5x/7x,,2x/4x,2hx[4:1]/4x,,,,{24}1,8,7,6/Cf,,,,,,
{8}1x/8x-4[8:1],7,2-5[8:1]/8,1,28,7,16,7,
1-5[8:1]/8,2,1/7-4[8:1],8,17,2,38,4,
{16}7,8,7,8,6,5,6,5,4,3,4,3,C,,E5,,
1,8,,3,4,,6,5,,45,,36,,1b/8b,,,
{8}2x-5[8:1]/7x,3,2/7-4[8:1],6,2-8[8:1]/7,3,2/7-5[8:1],6,
2-4[8:1]/7,3,27,6,27,{16}8,8,,3,3,,
{8}4/5-8[8:1],6,4-1[8:1]/5,3,45,{16}6,6,,1,1,,
7,8,7,8,{8}7,26,4b/8b,,{16},3,3,,
{8}1x-5[8:1]/8,E3,1/8-4[8:1],E7,1-5[8:1]/8,B3,1/8-4[8:1],B6,
1-5[8:1]/8,E3,18,E7,18,{16}2,2,,7,7,,
{8}1x-5[8:1]/8x,B2/B3,1/8-4[8:1],B6/B7,18,B2/B3,16,,
{16}2hx[16:3]/7hx[16:3],,,,4x/5x,4hx[4:1]/5hx[4:1],,,1x,8,1,8,2b/7b,,,
3h[16:3],,,4,,2,1,,38,,,7,,7,8,,16,
,,35,,46,,7,5,,2,4,,36,,,7h[16:3],
,,8,,6,5,,47,,,3,,3,4,,25,,,
78,,16,,25,2/5h[8:1],,4,5,4,7b,,,6h[16:3],
,,5,,7,8,,16,,,2,,2,1,,38,,,
46,,35,,2,4,,7,5,,27,,,1/6h[16:3],
,,5,,7,7,,3h[16:3]/8,,,4,,2,2,,4/7h[16:3],
,,8,,6,6,,2h[16:3]/5,,,1,,3,3,,4,
5hx[8:1],,,5,,5,,5,4h[8:1],,,4,,4,,4,
5,,5,,5,,4,4,,5,5,,4,4,,Chf[16:15],
{8},,,,,,,B2f/B7f,,,,,18,1-5[8:1]/8-4[8:1],27,18,,,,,4-8[8:1]/5-1[8:1],36,4b/5b,,
1x/8x-5[8:1],7,2-6[8:1]/8,1,28,7,16,7,
1^4[8:1]/8,2,1/7-3[8:1],8,17,2,38,4,
7xpp4[4:1],5,4,3,2xq5[4:1],5,6,7,
{16}8,,2x/4x,2x/4x,,5x/7x,5x/7hx[4:2],,,,{24}8,1,2,3/Cf,,,,,,
{8}2x^5[8:1]/8x,1,2/7-3[8:1],8,1-5[8:1]/7,2,18,6,
1/7^4[8:1],8,2-6[8:1]/7,1,2/8-4[8:1],7,18,3,
{16}2,1,2,1,3,4,3,4,5,6,5,6,C,,B4/B5,,
8,1,,6,5,,3,4,,45,,36,,1b/8b,,,
{8}2x/7x-4[8:1],6,1-5[8:1]/7,2,1/8-4[8:1],6,2-8[8:1]/8,3,
2/6-4[8:1],7,16,3,27,{16}1,1,,6,6,,
{8}4-8[8:1]/5,3,4/5-1[8:1],6,45,{16}3,3,,8,8,,
2,1,2,1,{8}2,37,1b/5b,,{16},6,6,,
{8}1x/8x-4[8:1],B6,1-5[8:1]/8,B3,1/7^4[8:1],B8,2^5[8:1]/7,B1,
2/8-4[8:1],E7,18,E3,18,{16}2,2,,7,7,,
{8}1-5[8:1]/8,B2/B3/E3,1/8-4[8:1],B6/B7/E7,18,B2/B3/E3,1b/6b,,
{16}2hx[16:3]/7hx[16:3],,,,4x/5x,4hx[8:1]/5hx[8:1],,,1x,8,1,8,,4x/5x,,2b/7b,
,,1,,3,4,,45,,6,5,,47,,8,1,8,,8,,6,5,,45,,3,4,,25,,1,,
{8}2h[4:1]/6,1,4h[4:1],1,5h[4:1],8,7h[4:1],8,
{16}4,,6,56,,3,3/4h[4:1],,,,{24}1,8,7,2b/6b,,,,,,
{16}8,,8,,6,5,,45,,3,4,,25,,1,8,1,,1,,3,4,,45,,6,5,,47,,8,,
2,1,2b,,7,8,7b,,3,4,3b,,6,5,6b,,
2,2h[8:1],,4,4h[8:1],,6,6h[8:1],,8,,17,,2b/6b,,4,
5,,45,,45,,45,4h[4:1]/5h[4:1],,,,,B2/B3/B6/B7/Cf,
{1},,,,,,,,,
E

Re:MASTER


名前:
コメント:

タグ:

+ タグ編集
  • タグ:
最終更新:2026年10月01日 19:40