BASIC
ADVANCED
EXPERT
(212)
{4},,,,,
,,,,,
,,,,,
3x/5x,4,5,{8}6,6,5,,7,7,5h[4:3],,{4}7,6,7,
4x/6x,5,4,{8}3,3,4,,2,2,4h[4:3],,{4}3,2,1,
2x/5x,3,6,{8}7,7,5,,6,6,4h[4:3],,{4}5,6,7<4[4:1],,,
3h[4:2],4,4,3x/4x,4x/5x,
6h[4:2],5,5,5x/6x,4x/5x,
3h[4:2],4,4,{6}2x,1x,8x,{4}2x/7x,,,
7h[4:2],6,5,46,35,
2h[4:2],3,4,45,34,
27,{8}6,5,,3,4,,{4}4>5[4:3]/5,C,,,,,,
{4}45,3,2h[4:1],5,5,{8}6x,6x,4x,,45,,3x,3x,4x,,
{4}45,3,2h[4:1],4,4,{8}3x,3x,5x,,45,,6x,6x,5x,,
{4}E5,E7,E1,E3,C,
56,7,8h[4:1],6,5,{8}6x,6x,4x,,35,,2x,2x,4x,,
{4}34,2,1h[4:1],3,4,{8}2x,2x,4x,,35,,7x,7x,5x,,
{4}E1,E3,E5,E7,C,
8h[4:6],6,6,5,4,3,
2h[4:6],4,4,3,1,8,
7,6,45,{6}2,1,8,{4}7v4[4:1],,,
3b>6[4:2],,,,,
{8}5,5,4,4,6,6,57,,36,,
4,4,5,5,3,3,24,,57,,
{4}3b/6b,,
{8}7,8,6,2,1,3,{4}7h[4:1],5h[4:1],3h[4:1],
1v3[8:1],5v7[8:1],,1>4[8:1],5<8[8:1],,
{8}2,1,3,7,8,6,{4}2h[4:1],4h[4:1],6h[4:1],
8v6[8:1],4v2[8:1],,8<5[8:1],4>1[8:1],,
{8}8,,6,57,,3,2^7[8:1]/4p7[8:1],,,,,,
67,,2,13,,6,5^2[8:1]/7p1[8:1],,,,,,
{8}2,2,1,3,,34,34,,25,,16,,
7,7,8,6,,56,56,,47,,1b/8b,,
{8}6,5,8,3,4,1,{4}6h[4:1],4h[4:1],2h[4:1],
8^3[8:1],7^4[8:1],,2^5[8:1],1^6[8:1],,
{8}3,4,1,6,5,8,{4}3h[4:1],5h[4:1],7h[4:1],
1^6[8:1],2^5[8:1],,7^4[8:1],8^3[8:1],,
{8}6,,3,24,,7,6v3[4:1]/8v3[4:1],,,,,,
{6}1x/5x,2x,3x,4x/8x,7x,6x,{4}2x/5x,36,
{8}4,4,6,6,3,3,7,7,2,2,18,,
{16}1,8,1,8,1,8,1,8,1>8[8:5],,,,
{4}Cf,,,,,
{8}3,4,3,4,3,,34,,25,,
6,5,6,5,6,,56,,47,,B4/E4,,B8/E8,,
2,1,2,1,2,,12,,38,,
7,8,7,8,7,,78,,16,,
2,2,1,3,7,7,8,6,2,,
{4}B8/E8,,E3,B1/E2,,
B4/E4,,E6,B8/E8,,
E4,B2/E2,E6,B7/E7,E5,C,
E7,E6,E5,E4,E3,Cf,,,
{3}4hx[4:1]/6hx[4:1],4hx[4:1]/6hx[4:1],46,{8},,,,
{3}3h[4:1]/5h[4:1],3h[4:1]/5h[4:1],35,{8},,,,
{3}5h[4:1]/7h[4:1],4h[4:1]/6h[4:1],35,{8},,,
{8}2,2,4,4,3,3,5q1[4:1]*p1[4:1],,,,,,,
{4}7h[4:4],,,B7,E6,,
2h[4:4],,,B2,E4,,
{8}6,6,5,7,,7,8,,18,,27,,
2,2,1,3,,3,4,,45,,2b/7b,,
6,5,8,3,4,1,{4}7h[4:1],5h[4:1],3h[4:1],
2^7[4:1],7^4[4:1],,8x,17,35,
{8}2,1,4,7,8,5,,4x/7x,,2x/5x,,4x/7x,
4x/7x^2[4:1],,2^5[4:1],,,,1x,,28,,46,,7,,
35,35,,17,7v4[4:1]/1v4[4:1],,,,,,
{6}25,3,4,58,7,6,{4}15,37,
{8}4,4,6,6,3,3,7,7,2,2,18,,
{16}1,8,1,8,1,8,1,8,
{4}1<2[4:3],C,,,,,
{8}5,2,5,4,7,4,{16}6,5,6,47,,,,,
{8}4,7,4,5,2,5,{16}3,4,3,25,,,,,
{8}18,,6,57,,3,2/4-8[8:1],,1,,
27,,3,24,,6,7/5-1[8:1],,8,,
27,,56,47,,34,2/5-8[8:1],,1,,
47,47,,25,25,,{1}1b/8b,,,,E
MASTER
(212)
{8}4,4,4,5,5,5,{16}3,4,3,4,3,,5,,
{8}6,6,6,4,4,4,{16}6,5,6,5,6,,4,,
{8}3,3,3,5,5,5,{16}3,4,3,4,3-6[4:1],,,,
{8}2,2,,3,,4,,6<3[2:1],,4,4,,5,5,,4,4,,
2-7[4:1]/5,,6,6,6,5,,4,,3>6[2:1],,4,4,,5,5,,4,4,,
3-6[4:1]/5,,2,2,,3,,4,,6<3[2:1],,4,4,,5,5,,4,4,,2z6[4:1]/5,,,,,,
7h[2:1]/4,,,,5,6,3h[4:1],,4,,2h[2:1]/5,,,,4,3,6h[4:1],,5,,7h[2:1]/4,,,,1,8,
{6}E2/B5,E8/B4,E3/E7,E1/B1/Cf/B5/E5,,,{4},{32}4x/5x,E5,Cf,E1,,,,,,,,,,,,,
{4}1x/8x,E3/B3/E7/B6,,{48}4x/5x,E5,B3/B6,Cf,B2/B7,E1,,,,,,,,,,,,,,,,,,,
{4}1x/8x,B2/B3/E3/B6/B7/E7,4/5q8[4:7],4b-1[16:11]/5x,,,,,,,,,
{16}5,3,5,3,6,2,6,2,
{4}7<3[4:3],B5/E5,,B6,C,2>6[4:3],B4/E5,,B3,C,7<3[4:3],E7/B6,,E5,C,2>6[4:3],E3/B3,,E5,C,
{8}78,81,12,34,45,56,78,16,25,34,
{4}2>6[4:3],B4/E5,,E3,C,7<3[4:3],B5/E5,,E7,C,2>6[4:3],B4/E5,,E4,C,7<3[4:3],B5/E5,,E6,C,
{8}21,18,87,65,54,43,12,38,47,56,
7,7h[2:1],,B4/B5/E5,,1,1h[8:6],,B2/E3,,B4/E4,,8h[8:5],,E8/B7,E7/B6,,2,2h[2:1],,B4/B5/E5,,C,,
18,18,,46,,25,{6}7/E4,1/E6,8/E5,2/Cf,,,
{4},{48}4b>5[1:2]/5b<4[1:2],E5,B6/B3,E3/Cf/E7,B2/B7,B1/B8,E1,,,,,,{4},,,,,,,,,
{16}3,,3,,5,,5,,3,4,2,4,1,,1,,5,,5,,3,7,3,7,2,6,2,6,
{4}1^4[8:1]/5,1-5[8:1],1,{16}37,26,15,84,{4}7-2[8:1]/3-6[8:1],3/7>6[4:3],3h[4:3],,,,,,
{4}8^5[8:1]/4,8-4[8:1],8,{16}62,73,84,15,{4}2-7[8:1]/6-3[8:1],6/2<3[4:3],6h[4:3],,,,,,
{8}7-3[4:1]/3,,3,2,1V35[4:1],,5-2[8:1],,8-4[8:1],,1,,
2-6[4:1],,6,7,8V64[4:1],,4-7[8:1],,1-5[8:1],,8<1[4:3],,{4}4h[1:1],,,,7h[4:1],2,
{16}1,8,1,8,1,8,1,8,1,8,1,8,1,8,1,8,1,8,1,8,{8}27,,
8^5[8:1],2,8-4[8:1],,8,,{16}62,73,84,15,{4}2-7[8:1]/6-3[8:1],6/2<4[4:1],26,
{16}1-5[8:1],8,7,6,15,,,,7,8,1,2,3,4,5,6,{8}3/7h[4:1],,
1^4[8:1],6,1-5[8:1],,1,,{16}37,26,15,84,{4}7-2[8:1]/3-6[8:1],3/7>5[4:1],37,
{16}8-4[8:1],1,2,3,48,,,,2,1,8,7,6,5,4,3,
{8}26,,18,18,,3h[4:1]/7h[4:1],,,2-5[8:1]/6-1[8:1],,26,,,,
{6}37,56,34,57,24,45,{4}27,4-1[8:1]/5-8[8:1],{16}45`E5,Cf,E1,,,,
{8}27,,8,26,,3-8[16:1]/7-4[16:1],,37,,
{24}26,37,48,51,,,,,,37,26,15,8pp7[8:5]/4pp3[8:5],,,,,,{4}48,,,,,
{16}3,,3,,3,4,3,,3,,3,,3,4,3,4,3,4,3,,3,,3,,3,4,3,,3,,3,,3,4,3,4,3,4,3,,
2,4,3,5,4,6,5,7,
5,,5,,5,6,5,,5,,5,,5,6,5,6,5,6,5,,5,,5,,5,6,5,,5,,5,,5,6,5,6,5,6,5,,
{8}7,7,5,5,3,3,1h[4:1],,5,,
{12}24,3,4,35,4,5,46,,,75,6,5,64,5,4,53,4,3,62,5,4,37,,,7,6,5,7,6,5,
24,3,4,35,4,5,46,5,6,57,6,7,68,7,8,71,8,1,
{4}2h[4:1]/6,8h[4:1],4h[4:1],2h[2:1],6h[4:1],,
{24}26,15,84,73,62,51,48,7,6,5,4,3,{4}2b/6b,,,
{8}45,,,36,,,{4}1-4[1:1]/8-5[1:1],,,,,,
{8}45,45,,36,,,,,,27,,18,{4}1-4[1:1]/8-5[1:1],,,,,,
{8}6>8[8:7],,,,,,,4,,4,,3,3<1[8:7],,,,,,,5,,6,,27,{4}2V41[2:1]/7V58[2:1],,,,18,27,
{16}1,8,1,8,1,8,1,8,1,8,1,8,1,8,1,8,1,8,1,8,{8}27,,
1-5[8:1],7,1^4[8:1],,1,,{16}62,73,84,15,{4}2-7[8:1]/6-3[8:1],6/2<4[4:1],26,
{16}1-5[8:1],8,7,6,1^6[8:1]/5,,,,14,3,2,1,{8}85,,26,,1h[4:1]/8h[4:1],,,36,45,1b/8b,,
2-7[8:1]/6-3[8:1],,26,,84,26,,
{16}83,7,6,5,8-4[8:1],1,2,3,4/8^3[8:1],,,,85,6,7,8,{8}14,,
18,,24,3,57,6,78,81,1/2h[4:1],,3,3,{6}24,56,34,57,24,45,
{4}27,4-1[8:1]/5-8[8:1],{16}45`E5,Cf,E1,,,,{8}27,,1,37,,2-5[16:1]/6-1[16:1],,26,,
{24}37,26,15,84,,,,,,26,37,48,5qq6[8:5]/1qq2[8:5],,,,,,{4}15,,,,,
{8}1-4[8:1],8,7,6-1[8:1],5-2[8:1],5,5-8[8:1],,,,
7-4[8:1],8,1,2^5[8:1],5q6[8:3],6,7h[2:1],,,,
1,8^3[8:1],7,6,5^8[8:1],4,{16}2v1[8:1],3,4,,7v8[8:1],6,5,,
{8}3,4-1[8:1],5,6,7-4[8:1],8,{16}3v4[8:1],2,1,,6v5[8:1],7,8,,
{8}2,1^4[8:1],8,7,6,5,1h[4:1]/8h[4:1],,,,
57,24,,36,27,18,{48}1b/8b,27,36,{1}45,,,,E
Re:MASTER
- 譜面の配置ミス、スライドの速さを修正しました。 -- けもがみ (2026-01-21 01:37:41)
最終更新:2026年04月05日 21:45