| アーティスト |
EB(aka EarBreaker) |
EASY
BASIC
ADVANCED
EXPERT
MASTER
(140){8}
7<3[8:1],,8,1,2>6[8:1],,1,8,
7<3[8:1],,8,1,2>6[8:1],7<3[8:1],,,
8<4[8:1],,1,2,3<7[8:1],,2,1,
8<4[8:1],,1,2,3<7[8:1],8<4[8:1],,,
1,12,2,23,3,34,4,45,
5,56,6,67,7,78,8,81,
{16}1,1,2,2,3,3,4,4,5,5,6,6,7,7,8,8,
{32}1,2,3,4,5,6,7,8,1,2,3,4,5,6,7,8,{8}1-5[8:1]/5,,1b/5,,
,2h[2:1],4,5,6,7h[8:5],,5,
4,3,2>7[4:1],,7<3[4:1],,2,,
,7h[2:1],5,4,3,2h[8:5],,4,
5,6,7<2[4:1],,2>6[4:1],,7b,,
,2h[2:1],4,5,6,7h[8:5],,5,
4,3,2>7[4:1],,7<3[4:1],,2,,
,7h[2:1],5,4,3,2,,67,
25,,23,47,{16}2b,6b,8b,4b,{8}2b,,
2-7[8:1]/6-3[8:1],3-6[8:1]/7-2[8:1],,,,1,8,45,
2-7[8:1]/6-3[8:1],3-6[8:1]/7-2[8:1],,,,4,5,18,
3-8[8:1]/7-4[8:1],4-7[8:1]/8-3[8:1],,,,2,1,56,
8,{16},1,{8}1,7h[8:1],5h[8:1],4h[8:1],2,,
3-6[8:1]/7-2[8:1],2-7[8:1]/6-3[8:1],,,,8,1,45,
3-6[8:1]/7-2[8:1],2-7[8:1]/6-3[8:1],,,,5,4,18,
2-5[8:1]/6-1[8:1],1-6[8:1]/5-2[8:1],,,,7,8,34,
1,{16},8,{8}8,2h[8:1],4h[8:1],5h[8:1],7b,,
{16}
2^5[8:1],1,2,1,2,,,,7^4[8:1],8,7,8,7,,,,
2q6[8:1],1,2,1,2,,,,7p3[8:1],8,7,8,7,,,,
5<1[8:1]/1,2,3,4,5,,,,6<2[8:1]/2,3,4,5,6,,,,
7>3[8:1]/3,4,5,6,7,,,,8>4[8:1]/4,5,6,7,8,,,,
4>8[8:1]/8,7,6,5,4,,,,3>7[8:1]/7,6,5,4,3,,,,
2<6[8:1]/6,5,4,3,2,,,,1<5[8:1]/5,4,3,2,1,,,,
1,1,3,3,5,5,7,7,2,2,4,4,6,6,8,8,
{32}1,2,3,4,5,6,7,8,1,2,3,4,5,6,7,8,1,2,3,4,5,6,7,8,{8}1/5b,,
1h[4:3],,,8,2h[4:3],,,1,
3h[4:3],,,2,4h[4:3],,,3,
5h[4:3],,,4,6h[4:3],,,5,
7h[4:3],,,6,8h[4:1],,,,
8h[4:3],,,1,7h[4:3],,,8,
6h[4:3],,,7,5h[4:3],,,6,
4h[4:3],,,5,3h[4:3],,,4,
2h[4:3],,,3,1h[4:1],,,,
8,87,7,76,6,65,5,54,
4,43,3,32,2,21,1,18,
{16}8,8,7,7,6,6,5,5,4,4,3,3,2,2,1,1,
7,7,5,5,3,3,1,1,{32}8,7,6,5,4,3,2,1,{4}48,
{16}5,1,6,2,7,3,8,4,7,3,6,2,5,1,4,8,
5,1,6,2,7,3,8,4,5,4,6,3,7,2,8,1,
8,1,7,2,6,3,5,4,45,45,45,45,45,45,45,45,
{4}4q5[4:1]/5,45,{16}7,8,1,2,{4}3b/6b,
{8}
2^7[8:1]/6^3[8:1],3^6[8:1]/7^2[8:1],,,,26,37,48,
3^8[8:1]/7^4[8:1],4^7[8:1]/8^3[8:1],,,,37,26,15,
2^7[8:1]/6^3[8:1],3^6[8:1]/7^2[8:1],,,,26,15,48,
1^6[8:1]/5^2[8:1],2^5[8:1]/6^1[8:1],,,,37,48,1b/5b,
3^6[8:1]/7^2[8:1],2^7[8:1]/6^3[8:1],,,,37,26,15,
2^5[8:1]/6^1[8:1],1^6[8:1]/5^2[8:1],,,,26,37,48,
3^6[8:1]/7^2[8:1],2^7[8:1]/6^3[8:1],,,,37,48,15,
4^7[8:1]/8^3[8:1],3^8[8:1]/7^4[8:1],,,,26,15,4b/8b,
3q8[8:1]/4^7[8:1],7^4[8:1]/8p3[8:1],,,,12,38,47,
6p1[8:1]/5^2[8:1],2^5[8:1]/1q6[8:1],,,,78,16,25,
3q8[8:1]/4^7[8:1],7^4[8:1]/8p3[8:1],,,,12,38,47,
6p1[8:1]/5^2[8:1],2^5[8:1]/1q6[8:1],,,,78,78,3b/4b,
1q6[8:1]/2^5[8:1],5^2[8:1]/6p1[8:1],,,,34,25,16,
8p3[8:1]/7^4[8:1],4^7[8:1]/3q8[8:1],,,,56,47,38,
1q6[8:1]/2^5[8:1],5^2[8:1]/6p1[8:1],,,,78,16,25,
{4}3/4q5[4:1],4/5<4[4:1],,8b,
2>6[4:1],7<3[4:1],2>6[4:1],7<3[4:1],
2>6[4:1],7<3[4:1],2>6[4:1],7<3[4:1],
2>6[4:1],7<3[4:1],2>6[4:1],7<3[4:1],
2>6[4:1],7<3[4:1],2b,7,
{8}2>6[4:1],2,7<3[4:1],7,2>6[4:1],2,7<3[4:1],7,
2>6[4:1],2,7<3[4:1],7,2>6[4:1],2,7<3[4:1],7,
2>6[4:1],2,7<3[4:1],7,2,2,7,7,
{4}4q5[4:1]/5,4/5<4[4:1],,8-4[8:1],
E
Re:MASTER
(140)
{1} ,
{8} 8h[2:1],,7,6,5h[2:1],,8,1,2h[2:1],,3p6[4:1],4,
{4} ,8b,2-5[8:1]/5-1[8:1],25,7-4[8:1]/4-8[8:1],47,1-4[8:1]/5-8[8:1],15,
{8} 45,36,2b/7b,,8,8h[4:1],6,6h[4:1],5,5h[4:1],1,1h[4:1],3,3h[4:1],4,4h[4:1],5,5,3b/6b,,
{16} 7,8,6,1,5,2,4,3,6,5,7,4,8,3,1,2,7,5,7,5,8<4[8:1],2,8,2,
{8} 8,,8b,,56,7,56,4,56,56,,34,
{4} 3-7[8:1]/4,8>5[4:1],5,1b,
{8} 56,4,56,7,56,56,,24,
{4} 2-6[8:1]/4,1-5[8:1],4,1b/6b,
{8} 34,5,34,2,34,34,,56,
{4} 5/6-2[8:1],1p5[8:1]*q5[8:1],,8b,
{8} 34,5,34,2,34,34,,56,
{4} 5/6-2[8:1],1s5[8:1],,3b/7b,
{8} 1<4[4:1]/2,,1h[8:3],,,
{16} 6b,,,6b,,,
{8} 8>5[4:1]/7,,8h[8:3],,,3,2,,1<4[4:1]/2,,1h[8:3],,,
{16} 6b,,,6b,,,
{4} 3-8[8:1]/7-4[8:1],3/7p2[8:1],7,8b,
{8} 5>8[4:1]/7,,5h[8:3],,,
{16} 1b,,,1b,,,
{8} 2/4<1[4:1],,4h[8:3],,,7,6,,5>8[4:1]/7,,5h[8:3],,,
{16} 1b,,,1b,,,
{4} 3-8[8:1]/7-4[8:1],3/7<2[8:1],7,8b,
{8} 4/5-7[8:1],3,45,,5-3[8:1]/6,7,56,,5-8[8:1]/6,4,35,,4/5-2[8:1],6,57,,3/4-6[8:1],5,34,,4-2[8:1]/5,3,45,,4-7[8:1]/5,3,24,,3/4-1[8:1],5,46,,1-4[8:1]/7,8,12,,2/8-5[8:1],1,78,,1-6[8:1]/7,8,12,,2/8-3[8:1],1,78,,7-5[8:1],7,8-5[8:1],8,1-5[8:1],1,2-5[8:1],2,1-4[8:1],1,8-4[8:1],8,7-4[8:1],7,1b,,
{1} 2pp5[4:5],7qq4[4:5],1qq6[4:5],5qq2[4:5],1qq4[4:5],6qq1[4:5],2qq5[4:5],
{4} 8-5[4:1],,,4b/5b,
{8} 5h[4:7]/6,6,7,7,8,8,1,1,2,2,3,3,4-2[8:1],4,,,4h[4:7]/3,3,2,2,1,1,8,8,7,7,6,6,5-7[8:1],5,,,8-6[8:1],8,4-2[8:1],4,7-5[8:1],7,3-1[8:1],3,6-4[8:1],6,2-8[8:1],2,5-1[8:1],5,4,4,4h[8:1],8h[8:1],5h[8:1],1h[8:1],6h[8:1],2,
{16} 2q7[4:1]/6,15,48,37,
{4} 2/6q3[4:1],,5-1[8:1]*-8[8:1],5b,1/5<8[8:1],
{32} 1p4[8:1],2,3,4,
{8} ,,,
{32} 2,3,4,5,
{8} ,1/5>2[8:1],,
{32} 1q6[8:1],8,7,6,
{8} ,,,
{32} 1,8,7,6,
{8} ,1/5<8[8:1],,
{32} 1p4[8:1],2,3,4,
{8} ,,,
{32} 1,2,3,4,5,6,7,8,
{8} 1h[4:1],,5-1[8:1],6,5/7b-3[8:1],,7b,,1>4[8:1]/5,,
{32} 5p8[8:1],6,7,8,
{8} ,,,
{32} 6,7,8,1,
{8} ,1<6[8:1]/5,,
{32} 5q2[8:1],4,3,2,
{8} ,,,
{32} 4,3,2,1,
{8} ,1>4[8:1]/5,,
{32} 5p8[8:1],6,7,8,
{8} ,
{4} 5q1[8:1],5qq1[8:3],,,
{8} 5,46,3b/7b,,2<7[8:1]/6,,
{32} 6q3[8:1],5,4,3,
{8} ,,,
{32} 7,6,5,4,
{8} ,4<7[8:1]/8,,
{32} 8p3[8:1],1,2,3,
{8} ,,,
{32} 8,1,2,3,
{8} ,3<6[8:1]/7,,
{32} 7p2[8:1],8,1,2,
{8} ,,,
{32} 7,8,1,2,3,4,5,6,
{8} 7h[4:1],,1-5[8:1],28,1b-4[8:1]*-6[8:1],,1b,,2/6>3[8:1],,
{32} 2q7[8:1],1,8,7,
{8} ,,,
{32} 3,2,1,8,
{8} ,8>3[8:1]/4,,
{32} 4p7[8:1],5,6,7,
{8} ,,,
{32} 4,5,6,7,
{8} ,3/7>2[8:1],,
{32} 3p6[8:1],4,5,6,
{8} ,,,
{4} 1p4[4:1],5p7[4:1],,1bw5[8:1],,
{16} 78,,16,,3,4,2,,6,5,7,,
{8} 12,45,3>8[8:1],3,5p8[8:1],5,4,4,2b/6b,,
{16} 12,,38,,6,5,7,,3,4,2,,
{8} 7/8>4[8:1],16,7q4[8:1],7,8>4[8:1],8,5,5,
{2} 2bq7[8:1]/7b,
{16} 7,8,6,,2,1,3,,
{8} 56,18,2<6[8:1],2,5-1[8:1],5,4,4,2b/7b,,
{16} 45,,36,,7,8,5,,2,1,4,,
{4} 2-5[8:1]/6-1[8:1],2b-7[8:1]/6b-3[8:1],2b/6b,1b/5bw1[8:1],,3b/7b,,,E
最終更新:2026年10月04日 21:03