アットウィキロゴ

Maboroshi

アーティスト かめりあ(EDP)

BPM BASIC ADVANCED EXPERT MASTER Re:MASTER
190 5 7+ 11 14 -

EXPERT MASTER Re:MASTER
譜面制作者 サファ太 華火職人 -

BASIC

(190.0){1},,,
{1}4h[1:1],,
{1}4h[1:1],,
{1}5h[1:1],,
{1}5h[1:1],,
{1}3/4,
{1}3/4,
{1}3/4,
{2}5,5,
{1}5/6,
{1}5/6,
{1}5/6,
{2}4,4b,
{2}3,3,
{2}2,2,
{2}1,1,
{1}1/8,
{2}7,7,
{2}6,6,
{2}5,5,
{1}4x/5x,
{2}6,6,
{2}7,7,
{2}8,8,
{1}1/8,
{2}2,2,
{2}3,3,
{2}4,4,
{1}4b/5b,
{2}4,4,
{4}5,5,5,,
{1}3h[1:1]/4h[1:1],,
{2}5,5,
{4}4,4,4,,
{1}5h[1:1]/6h[1:1],,
{2}3/4,3/4,
{4}6,5,6,,
{1}3h[1:1]/5h[1:1],,
{2}5/6,5/6,
{4}3,4,3,,
{2}3/4,3/4,
{4}6,5,6,,
{1}B7,
{1}B6,
{1}B5,
{1}B4,
{1}B3,
{1}B2,
{1}Ch[1:1],,
{1}8,
{1}8,
{1}1/7,,
{1}1,
{1}1,
{1}2h[2:3]/8h[2:3],,
{1}7/8,
{1}1/2,
{1}7/8,
{2}8,8,
{4}1,1,1,,
{4}8,8,8,,
{4}1,1,8,8,
{4}1,8,1x,,
{1}8-4[4:3],,
{4}4,4,5,5,
{4}4,5,4b/5b,,
{4}6,6,6,,
{4}7,7,7,,
{1}8-4[4:3],,
{4}3,3,3,,
{4}4,4,4,,
{2}5/6,3/4,
{4}5,5,4b/5b,,
{4}3,3,3,,
{4}2,2,2,,
{1}1-5[4:3],,
{4}6,6,6,,
{4}5,5,5,,
{2}3/4,5/6,
{4}4,4,5,5,
{1}4-1[4:3],,
{1}5-8[4:3],,
{2}1,1,
{2}2,2,
{4}3,3,4,4,
{4}5,5,5/6,,
{1}7h[2:1]/8h[2:1],
{1}1h[2:1]/2h[2:1],
{1}7h[2:1]/8h[2:1],
{4}1,1,1b,,
{2}2,2,
{4}3,3,3/4,,
{4}4,4,5,5,
{4}4,5,4,5,
{1}4b/5b,
{1}5,
{1}6,
{1}6,
{1}7,
{1}7,
{2}8,8,
{1}8-4[4:3],,
E

ADVANCED

(190.0){1},,,
{1}6^3[4:5],,
{1}2^7[4:5],,
{1}6^3[4:5],,
{1}2^5[4:5],,
{1}5hx[8:3]/6hx[8:3],
{1}3hx[8:3]/4hx[8:3],
{1}4hx[8:3]/5hx[8:3],
{2}4/5,3/6,
{4}7,7,7,,
{4}2,2,2,,
{4}8,8,1,1,
{2}1/8,2x/7x,
{2}3h[2:1],4,
{4}5,5,4,,
{2}6h[2:1],5,
{4}4,4,5,,
{2}3h[2:1],4,
{4}3,3,4,,
{1}5h[2:1]/6h[2:1],
{2}5/6,4/7,
{2}7h[2:1],8,
{4}1,1,8,,
{2}2h[2:1],1,
{4}8,8,1,,
{2}7h[2:1],8,
{2}2h[2:1],1,
{2}3h[2:1],4,
{2}4/5,3x/6x,
{4}2,2,1/2,,
{4}7,7,7/8,,
{2}7h[2:1],6h[2:1],
{2}5,4x/5x,
{4}3,3,3/4,,
{4}6,6,5/6,,
{2}5h[2:1],4h[2:1],
{2}3,2x/5x,
{4}2,2,1/2,,
{4}7,7,7/8,,
{2}6h[2:1],7h[2:1],
{2}8,1x/6x,
{4}7,7,6,6,
{2}5/6,3/4,
{4}1,1,2,2,
{2}3/4,2b/7b,
{1}C1f,,,,
{1}Ch[1:3],,,,
{2}E7,E6,
{1}E5,
{2}E3,E4,
{1}E5,
{2}E6,E7,
{1}E8,
{2}B4/B5,B3/B6,
{1}B2/B7,
{1}1hx[8:3]/8hx[8:3],
{1}2hx[8:3]/4hx[8:3],
{1}5hx[8:3]/7hx[8:3],
{4}4/5,4/5,4/5,,
{4}3h[2:1],4,4,,
{4}6h[2:1],5,5,,
{4}7,7,8,8,
{4}1,1,1/8,,
{1}2bV41[4:5]/7bV58[4:5],,
{1}Ch[1:1],
{2},1/8,
{4}2b,2,3,4,
{4}5,6,4/7,,
{4}7,7,6,5,
{4}4,3,2/5,,
{4}3,3,2,1,
{4}8,7,1/6,,
{4}8,8,1,1,
{2}1h[4:1]/8h[4:1],2b/7b,
{1}C1f,
{4}1x/8x,1x/8x,2x/7x,,
{4}3/4,3/4,2/5,,
{4}5/6,5/6,4x/7x,,
{4}8,7,6,5,
{4}4,3,2,1,
{4}8,8,1,1,
{4}1/8,2/7,3b/6b,,
{4}3hx[2:1],,4,4,
{4}3/4,4/5,5/6,,
{4}7h[2:1],,8,8,
{4}7/8,1/8,1/2,,
{2}3h[4:1]/4h[4:1],2/5,
{2}5h[4:1]/6h[4:1],4/7,
{4}5,5,4,4,
{4}4/5,3/6,2b/7b,,
{1}2hx[8:3]/4hx[8:3],
{1}5hx[8:3]/7hx[8:3],
{1}1hx[8:3]/2hx[8:3],
{1}7hx[8:3]/8hx[8:3],
{8}5x/6x,,4/7,4/7,,,,,
{8}3/4,,2/5,2/5,,,,,
{4}2,1/2,7,7/8,
{4}1/8,2/7,3/6,4/5,
{1}2b/7hx[8:23],,,
{8},,,,,B3/E4,,,
{8},,,,,B6/E6,,,
{8},,,,,B4/B5,,,
{2},Ch[2:3],{1},,
E

EXPERT

(190.0){1},,,
{1}4qq7[4:5],,
{1}8qq3[4:5],,
{1}1pp6[4:5],,
{2}5h[2:3],4,
{4}4h[2:1],,,4/5,
{8}5hx[4:1]/6hx[4:1],,,5/6,,7,7,,
{8}3hx[4:1]/4hx[4:1],,,3/4,,2,2,,
{8}4hx[4:1]/6hx[4:1],,,4/6,,7,7^4[8:3],,
{4},,,3/5,
{4}2,3,4/5,5/6,
{4}7,6,4/5,3/4,
{8}2,2,2,,7,7,7,,
{2}1-5[8:1],4x/6x,
{8}2,2h[8:3],,4,4h[8:3],,3,3,
{8},3/4,,5,,4x/6x,,,
{8}7,7h[8:3],,5,5h[8:3],,6,6,
{8},5/6,,4,,3/5,,,
{8}2,2h[4:1],,4,4h[8:3],,3,3,
{8},3/4,,4/5,,2x/7x,,,
{8}6x,6h[8:3],,5,5h[8:3],,7,7,
{8},8,,1/7,1x/7x,,,,
{8}3,3h[8:3],,4,4h[8:3],,3,3,
{8},2/5,,3/4,,4x/7x,4/7,,
{8}6,6h[8:3],,5,5h[8:3],,6,6,
{8},7,,8,,7,5/7,,
{8}6,6h[4:1],,3,3h[8:3],,4,4,
{8},2/5,,1,,2x/8x,2/8,,
{8}3,3h[4:1],,6,6h[8:3],,5,5,
{8},1x/8x,,2x/7x,2b/7b,,,,
{8}5/6,,5/7,5/7h[8:3],,8,8,,
{4}7/8,5/6,3/4,5/2h[4:5],
{1}Ch[2:3],
{2},2x,
{8}3x/4x,,2/4,4/2h[8:3],,1,1,,
{4}1/2,3/4,5/6,4/7h[4:5],
{1}Ch[2:3],
{2},7x,
{8}7x/8x,,1/6,1/6h[8:3],,5,5,,
{4}5/6,7/8,1/2,8/3h[4:5],
{1}Ch[2:3],
{2},1x,
{2}7-4[4:1],2-5[4:1],
{4}6,7/8,1,2/8,
{2}3-6[4:1],7-2[4:1],
{4}3,4,3/5,4/6,
{1}B3/B7/Ch[1:4],,,,
{1}1>6[4:5],,
{1}Ch[1:1],,
{4}B3,B2,E2,E1,
{4}C1,E5,B3/E4,,
{4}B6,B7,E8,E1,
{4}C1,E5,B6/E6,,
{4}E3,B2,B1,E8,
{4}C1,E4,B2/E3,,
{4}B3,B4,B5,B6,
{2}C1,2/7,
{8}3h[4:1],,,2h[4:1]/4h[4:1],,,2/4,,
{8}6h[4:1],,,5h[4:1]/7h[4:1],,,5/7,,
{8}2h[4:1],,,1h[4:1]/3h[4:1],,,4/8w4[2:1],,
{4},,,2/6,
{4}3h[4:1],4,7h[4:1],5,
{4}2h[4:1],1,7h[4:1],8,
{8}6,6,5,,3,3,4,,
{8}7,7,8,,2,2,1,,
{1}8pp3[4:5]*qq5[4:5],,
{8}4,,3,3/4,,6,5/6,,
{4}7/8,1/2,3x/6x,,
{8}7b-3[8:1],,1,1-5[8:1],,8,8h[4:1],,
{4}6h[4:1],4h[4:1],3,2/8,
{4}1/7<1[2:1],C1f,,,
{4}7/8,7/8,5/6,3/4,
{8}2b-6[8:1],,8,8-4[8:1],,1,1h[4:1],,
{4}3h[4:1],5h[4:1],7,1/6,
{4}3/8-4[8:1],2,6/1-5[8:1],7,
{2}3-1[8:1]/8-4[8:1],2x/6x,
{4}C1f/B3/B7,,,1x/8x,
{4}2/5h[4:1],8h[4:1],3h[4:1],4,
{4}3/5<3[2:1],C1f,,,
{4}5/6,5/6,7/8,1/6,
{8}3-7[8:1],,5,5-1[8:1],,4,4h[4:1],,
{4}1h[4:1],6h[4:1],5,4/5,
{8}3,3,4,2,6,6,5,7,
{4}C1f,,,2x/7x,
{2}8^5[4:1],1^4[4:1],
{4}6h[1:1],5,7,5,
{2}4^1[4:1],5^8[4:1],
{4}2h[4:3],1,3,1,
{2}8^5[4:1],4^1[4:1],
{4}8h[4:1],7h[4:1],6h[4:1],5,
{8}3,3,4,2,6,6,5,7,
{16}1,8,1,8,1,8,1,8,1b,,,,,,,,
{8}4/3h[4:1],,,2h[4:1]/4h[4:1],,,2/4,,
{8}5/6h[4:1],,,5h[4:1]/7h[4:1],,,5/7,,
{8}1h[4:1]/2h[4:1],,,3h[4:1]/8h[4:1],,,3/8,,
{8}4h[4:1]/5h[4:1],,,4/5,,3/6,3b/6b,,
{8}2h[4:1]/4h[4:1],,,3h[4:1]/8h[4:1],,,3x/8x,,
{8}5h[4:1]/7h[4:1],,,1h[4:1]/6h[4:1],,,1x/6x,,
{8}2,2,4,4,5,5,7,7,
{16}1,8,1,8,1,8,1,8,1,,,,6/3>6[8:23],,,,
{1}C1f,,,
{8},,,,,6h[8:35],,,{1},
{8},,,,,3h[2:11],,,{1},,,,
{8}Ch[8:9],{1},,
E

MASTER

(190)
{8} E3,E5,E4,E6,,,E7,E5,E6,E4,,,3<6[8:1],,,,E7,E5,E6,E4,,,E3,E5,E4,E6,,,6>3[8:1],,,,E2,E4,E3,E5,,,E8,E6,E7,E5,,,5-1[8:1],,,,E2,E4,E3,C,,,E8,E6,E7,Ch[8:5],,,,,,,5/7h[4:1],,6,5h[4:1]/8h[4:1],,,46,,2h[4:1]/4,,3,1h[8:3]/4h[4:1],,,8b,,4h[4:1]/5,,8,2h[4:1]/6h[4:1],,,
{1} 3V52[2:1]/7V16[2:1],
{8} Cf,,45,3,24,,45,6,57,,45,3,12,,45,6,78,,34,2,56,7,18,27,36,45,
{16} 4,5,3,6,2p6[8:1],7,1,8,
{2} 2q6[8:1],
{8} 1h[8:1],E8,,5h[8:1],E4,,2<5[8:3],
{4} C,,,18,
{8} ,5h[8:1],E7,,1h[8:1],E3,,7V15[8:3],
{4} B6,2<3[2:1],,,
{8} ,6h[8:1],E8,,2h[8:1],E4,,5s1[8:3],
{4} C,,,37,
{8} ,2h[8:1],E3,,6h[8:1],E7,,4h[8:1],E5,,1,2,3,
{16} 5,4,
{8} 5,2b/7b,,8h[8:1],B7/E8,,4h[8:1],B3/E4,,6q3[8:3]*>3[8:3],
{4} C/E5,,,45,
{8} ,1h[8:1],E1/B8,,5h[8:1],B4/E5,,2p5[4:1],
{4} B3/E3,7>6[2:1],,,
{8} ,3h[8:1],B2/E3,,7h[8:1],B6/E7,,4q5[8:3],
{4} C/E5,,,18,
{8} ,6h[8:1],E6/E7,,2h[8:1],E2/E3,,5h[8:1],C/E5,,
{16} 3,4,2,,6,5,
{8} 7,18,2b/7b,,
{32} 45,,,,6x,5,6,5,,,,,45,,,,3x-8[8:1],4,3,4,,,,,
{4} 6-1[8:1],2-5[8:1],7p2[8:1],2q7[8:1],,
{8} 4h[4:1],,,5h[4:1]/7h[4:1],,,5/6<3[4:3],,5h[4:1],,,5h[4:1],,,5,,
{32} 45,,,,3x,4,3,4,,,,,45,,,,6x-1[8:1],5,6,5,,,,,
{4} 3-8[8:1],7-4[8:1],2q7[8:1],7p2[8:1],,5,
{8} 3,3,
{4} 4,4/3>6[2:1],4,5,4,5,
{32} 45,,,,6x,5,6,5,,,,,45,,,,3x-8[8:1],4,3,4,,,,,
{4} 7-4[8:1],2-5[8:1],6q3[8:1],3v8[16:1],,
{8} 7h[4:1],,,5h[4:1]/8h[4:1],,,6/7>4[4:3],,6h[4:1],,,5h[4:1],,,6,,
{32} 45,,,,2x,4,2,4,,,,,45,,,,7x,5,7,5,,,,,
{8} 4h[8:1]/5h[8:1],,3,24,6,57,1h[8:1]/8h[8:1],,27,,
{32} 45,,,,2x,3,2,3,,,,,45,,,,7x,6,7,6,
{16} ,,1h[8:1]/8h[8:1],,,,1,8,1,8,2,7,2,7,
{4} 3-8[8:1]/6-1[8:1],6<4[1:3]/3>5[4:15],
{1} ,,,,4h[1:2],,Ch[4:7],,
{8} E3,E8,E2,E1/4,,,E7,E2,E8,E1/5,,,C/6<1[8:1],,,,E3,E5,E4,E6/2,,,E7,E5,E6,E4/7,,,C/2>5[8:1],,,,E8,E6,E7,E5/8,,,E2,E4,E3,E5/1,,,C/4-8[8:1],,,,E8,E6,E7,C/4,,,E2,E4,E3,Ch[8:5]/5h[8:5],,,,,,,12,38,
{16} 2,1,
{8} 2h[4:1],,4,4,,78,16,
{16} 7,8,
{8} 7h[4:1],,5,5b,,4/5h[4:1],,1,3h[4:1]/7h[4:1],,,
{1} 2V83[2:1]/6V47[2:1],
{8} Cf,,45,6,57,6,45,3,24,3,45,6,78,6,45,3,12,3,46,7,35,2,18,27,36,45,
{16} 5,4,6,3,7p3[8:1],2,8,1,
{2} 7q3[8:1],
{1} 2q5[2:3]/6q1[2:3],,
{16} 4,5,4,5,4,5,4,5,3,6,4,5,3,6,4,5,3,7,2,6,4,,8,3,
{4} 2b/6b,
{32} 1V75[16:3]*p5[16:3],2,3,4,5,6,7,8,
{8} ,,,
{16} 2,4,
{8} 2-7[8:1],13,2V46[16:3]*q6[16:3],,,,,
{16} 7,5,
{8} 7-2[8:1],68,7,,34,56,7h[4:1]/1-5[8:1],,1,,18,,
{32} 7,6,5,4,,,,,2,3,4,5,,,,,8,1,2,3,,,,,1V35[16:3]*q5[16:3],8,7,6,
{2} ,
{16} 7,5,
{8} 7-2[8:1],68,7V53[16:3]*p3[16:3],,,,,
{16} 2,4,
{8} 2-6[8:1],13,2,,7h[8:5],
{32} 5,4,3,2,,,,,4,3,2,1,,,,,3,2,1,8,,,,,7,68,15,24,
{8} 3h[8:3],,,8,
{4} 2b/6b,
{32} 7,6,5,4,3,2,1,8,
{4} 3h[2:1]/7h[2:1],,,Cf/8bV64[16:3]*p4[16:3],,
{16} ,,2,4,
{8} 2-6[8:1],13,2,,57,18,
{4} 4-8[8:1]/2h[4:1],4,57,
{32} 2,3,4,5,,,,,1,2,3,4,,,,,7,6,5,4,,,,,8V24[16:3]*q4[16:3],7,6,5,
{4} ,,
{16} 7,5,
{8} 7-2[8:1],68,7V53[16:3]*p3[16:3],,,,,
{16} 7,5,
{8} 7-2[8:1],68,7,,1h[8:5],
{32} 2,3,4,5,,,,,3,4,5,6,,,,,4,5,6,7,8,1,2,3,4,5,6,7,
{4} 8h[2:1],3,2,1b/7b,
{16} 6,5,6,5,6,,3,4,3,4,3,,12,,78,,6,5,6,5,7,,3,4,3,4,2,,13,,68,,4,5,4,5,3,6,2,7,1,8,2,7,1,8,2,7,1,6,1,5,1,4,1,3,
{32} 1,2,3,4,5,6,7,8,
{16} 1b/5b,,,,6,5,6,5,7,,3,4,3,4,2,,18,,57,,6,5,7,5,6,,3,4,2,4,
{8} 3,18,24,57,57,24,24,78,78,12,12,
{32} 7,6,5,4,3,2,1,8,7,6,5,4,3,2,1,8,
{4} 3b/7b,Cf,
{32} 18,,,,3x,4,3,4,,,,,18,,,,6x,5,6,5,,,,,
{4} 1-5[8:1]/8,1/7-4[8:1],7/2-6[8:1],2,4b/8b,
{32} 18,,,,2x,4,2,4,,,,,18,,,,7xp2[8:1],5,7,5,
{8} ,,,3,24,6,57,18,,Cf,,
{32} 45,,,,2x,3,2,3,,,,,18,,,,7x,6,7,6,
{8} ,45,36,2,34,7,56,
{4} 1-4[8:1]/8-5[8:1],18,
{32} 36,,,,2x,5,2,5,,,,,18,,,,7x,4,7,4,,,,,18,,,,27,,,,45,,,,2x,3,2,4,,,,,45,,,,7x,6,7,5,
{8} ,18,,
{1} 4>5[2:5]/5<4[4:13],,,,B3,E7,E4,B8,
{8} E7,E1,E8,E2,,,E3,E1,E2,E8,,,,,,,E3,E5,E4,E6,,,E7,E5,E6,E4,
{1} ,,,,,,,,,, E

Re:MASTER


  • 拍数が32分の1違うところがあったので修正しときました。 -- 嵐雅 (2021-05-23 02:30:12)
  • MASTER譜面のSLIDEの速度の修正を行いました。なお、公式で一度譜面が修正されており、こちらの譜面データは修正後の譜面となっております。 -- けもがみ (2026-04-27 19:56:00)
名前:
コメント:

タグ:

+ タグ編集
  • タグ:
最終更新:2026年04月27日 19:56