| アーティスト |
Team Grimoire vs Laur |
BASIC
(210)
{1},,,,4,4,5,5,4,4,4h[1:1]/5h[1:1],,Ch[1:2],,,,
{1}1x/2x,2,3x/4x,4,5x/6x,6,7x/8x,8,8x,7,6,5,4,3,2,1x/8x,
{2}1,1,1,,2,2,2,,3,3,3,,4,4,45,,5,5,5,,6,6,6,,7,7,7,,8,8,1b/8b,,
{4}8,8,{2}8,7,,{4}6,6,{2}6,45,,{4}4,4,{2}4,3,,{4}2,2,{2}2,1,,{0.5}2b/8b,
{1}E1,B8,B7,E6/E7,E5,B4,B3,E2/E3,
B7/B8,B5/B6,B3/B4,B1/B2,B7/B8/E8,B5/B6/E6,B3/B4/E4,B1/B2/E2,Ch[1:1],,
B6/B7/B8/E7/E8,,B1/B2/B3/E2/E3,,Chf[1:2],,,,
{4}8,8,8,,7,,7,,6,6,6,,45,,45,,4,4,4,,3,,3,,2,2,2,,1x/2x,,,,
1,1,1,,2,2,2,,3,3,3,,45,,45,,5,5,5,,6,6,6,,7,7,7,,1b/8b,,,,
7,7,78,,6,6,56,,4,4,45,,3x/6x,,,,2,2,12,,3,3,34,,5,5,45,,3x/6x,,,,
5,5,5,5,6,6,56,,4,4,4,4,3,3,34,,2,2,2,2,1,1,12,,8,8,8,8,7h[2:1]/8h[2:1],,,,
{1}1-4[4:7]/8-5[4:7],,,,,
E
ADVANCED
(210)
{1}3h[1:1],4h[1:1],5h[1:1],6,
{2}7h[2:1],8,78,18,2h[2:1],1,18,27,{1}3hx[2:1]/6hx[2:1],2hx[2:1]/7hx[2:1],
1xpp4[4:5]/8xqqp5[4:5],,4xqq1/5xpp8[4:5],,2x/7x,,
{4}2,2,1,1,8,8,17,,6,6,5,5,4,4,35,,2,2,1,1,8,8,17,,6,6,5,5,4,4,36,,
{1}2-6[2:1],7^4[2:1],3^8[2:1],7-4[2:1],2-7[2:1],6-3[2:1],2v5[2:1],{2}46,37,
{4}2x,2,1,,7,7,8,,2,2,3,3,4,4,35,,6,6,5,,3,3,4,,6,6,7,7,8,8,27,,
6,6,56,,3,3,34,,6,6,7,7,78,78,16,,2,2,12,,7,7,78,,2,2,3,3,45,45,3b/6b,,
78,78,78,78,78,78,1x/6x,,12,12,12,12,18,78,1x/6x,,
56,56,56,56,56,56,4x/7x,,34,45,56,45,36,27,18,27,{1}3bV15[4:5]/6bV84[4:5],,
{1}E4,B3,B2,B1,B8,B7,B6,B5,B3/B4,B1/B2,B7/B8,B5/B6,
E2/E8,B2/B7,{0.5}B3/B6/Ch[1:1],B3/B6/Ch[1:1],
{1}7hx[1:1],8h[1:1],1h[1:1],2x,{4}3,3,2,2,{8}1,1,1,,8,8,8,,{1}2bV41[2:3]/7bV58[2:3],,
{4}2x,2,12,12,3,4,35,,6,6,56,56,7,8,27,,2,2,12,12,3,4,35,,6,6,56,56,45,45,3x/6x,,
7,78,2,12,3,34,25,,6,56,3,34,2,12,38,,7,78,2,12,3,34,25,,45,45,36,36,2x/7x,2x/7x,1x/8x,,
{8}2,2,{4}2,12,18,78,78,16,,{8}6,6,{4}6,56,45,34,34,25,,
{8}2,2,{4}2,12,18,78,78,16,,{8}7,7,{4}7,18,18,27,27,3b/6b,,
{8}2,2,{4}2,12,18,{8}7,7,{4}7,68,,{8}6,6,{4}6,56,45,{8}3,3,{4}3,24,,
{8}2,2,{4}2,12,38,{8}7,7,{4}7,78,16,{8}1,1,1,,8,8,8,,{2}27,36,
{1}4b>5[4:7]/5b,,,,,
E
EXPERT
(210)
{4} 4h[1:1],,5,5,6h[1:1],,4,4,3,,3,34,5,45,6,56,4h[2:3]/7b,7,6,6,5,,B6/B7,,
2b/5hx[2:3],2,3,3,4,,B2/B3,,
{1} 1x^4[4:1]/5x^8[4:1],4x^1[4:1]/8x^5[4:1],2h[4:7]/7-5[4:1],4-8[4:1],
3h[1:3]/6-8[4:1],1-5[4:1],Ch[1:1],,
{8} 1b/8b,,3,3h[4:1],,4,4h[4:1],,2,2h[4:1],,4,35,,46,,
57,,6,6h[4:1],,5,5h[4:1],,7,7h[4:1],,5,46,,35,,24,,1,1h[4:1],,4,4h[4:1],,2,2h[4:1],,4,35,,46,,
57,,8,8h[4:1],,5,5h[4:1],,7,7h[4:1],,5,46,,37,,
2b-5[8:1],,,6-1[8:1],,,2-5[8:1],,,6-1[8:1],,,2x,,3x/8x,,
7b-4[8:1],,,3-8[8:1],,,7-4[8:1],,,3-8[8:1],,,7x,7x,1x/6x,,
3b/4b-7[8:1],,,1-5[8:1],,,6-2[8:1],,,1-4[8:1],,,7x,,4x/6x,,2-6[8:1]/5,,,8z4[8:3],,,
{4} 3x,2x,,
3,4,56,56,34,34,56,56,47,
{8} 3,3,
{4} 34,34,56,56,34,25,
{8} 47,47,,25,25,,
{4} 36,47,47,25,25,
{8} 4x,4x,5x,5x,
{4} 3h[4:1],2h[4:1],1h[4:1],8h[4:1],7h[4:1],6h[4:1],
{8} 5,5,46,,3,3,24,,
{4} B7/B8,B5/E6,B3/E4,B1/B2,E1,B3/B6,
{8} 1x,1x,2x/8x,,6,6,5,7,3,3,4,2,8,8,17,,5,5,46,,
{4} 28,B3/B5,17,B4/B6,
{8} 3x,3x,5x,5x,
{2} 1-5[8:1]/7,2/8-4[8:1],
{8} 3,,3,,2,1,8,7,
{4} 4h[8:1]/6h[8:1],4h[8:1]/6h[8:1],2h[8:1]/8h[8:1],2h[8:1]/8h[8:1],
4h[8:1]/6h[8:1],46,B7/E8,B2/E2,
3hx[8:1]/5hx[8:1],3h[8:1]/5h[8:1],1h[8:1]/7h[8:1],1h[8:1]/7h[8:1],
3h[4:1],B4/B5,7h[4:1],B1/B8, 3hx[8:1]/5hx[8:1],3h[8:1]/5h[8:1],1h[8:1]/7h[8:1],1h[8:1]/7h[8:1],
3h[8:1]/5h[8:1],35,B2/E2,B7/E8, 5hx[8:1]/6hx[8:1],47,1h[8:1]/2h[8:1],38,4h[8:1]/5h[8:1],36,
{8} 18,18,27,27,
{1} 3bqq4[4:3]/6bpp5[4:3],,5<4[4:9],,,
{2} 6,5,
{1} 4>5[4:9],,,
{2} 45,3x/6x,
{1} E3/E4,E6/E7,B1/B8,C,B4/B5/E4/E6,B1/B8/E2/E8,
4bw8[4:1],1hx[2:1]/7hx[2:1],5bw1[4:1],2hx[2:1]/8hx[2:1],
{8} 1h[4:1],,3,3h[4:1],,5,5h[4:1],,7,7h[4:1],,1,,28,,37,, 8h[4:1],,6,6h[4:1],,4,4h[4:1],,2,2h[4:1],,8,17,,,26,,
{4} 1x,2,3,4,
{8} 5x,6,7,8,
{16} 1x,2x,3x,4x,5x,6x,7x,8x,
{4} 1hx[2:3],,,,,,,2b/6b,
{8} 7h[4:1]/8x,,5,46,,3,24,,1x/2h[4:1],,4,35,,6,57,,7h[4:1]/8x,,5,46,,3,24,,1/8x,,34,15,,56,48,, 1x/2h[4:1],,4,35,,6,57,,7h[4:1]/8x,,5,46,,3,24,,
1x/2h[4:1],,4,35,,6,57,,18,18,2/7-4[8:1],,8-3[8:1],,7b,, 1x/2x,1x/2x,3hx[4:1]/8x,,4,,25,,56,56,4/7h[4:1],,8,,16,, 34,34,2h[4:1]/5,,1,,38,,16,7,8,7,,15,15,,34,34,2h[4:1]/5,,1,,38,,56,56,4/7h[4:1],,8,,16,,3,4,2,6,5,7,3,4,
{16} 2hx[8:1]/5hx[8:1],,,2hx[8:1]/5hx[8:1],,,2x/5x,,
{8} ,47,47,,6-3[8:1],6,2-7[8:1],2,5,,1x/6x,,5-8[8:1],5,1-4[8:1],1,7,,3x/8x,,
2-7[8:1],2,6-3[8:1],6,1,,2x/5x,,6,6,5,7,3,3,4,2,
7-4[8:1],7,8-3[8:1],8,6,,2x/5x,,3-8[8:1],3,4-7[8:1],4,2,,1x/6x,,
3,3,4,1,6,6,5,8,27,27,36,36,
{16} 4,5,4,,
{8} 36,,2-5[8:1],2,6-1[8:1],6,4,4,38,,7-4[8:1],7,3-8[8:1],3,5,5,16,,
3-8[8:1],3,7-4[8:1],7,1,1,25,,6-1[8:1],6,2-5[8:1],2,8,8,47,,
6-1[8:1],6,5-2[8:1],5,8,8,47,,3-8[8:1],3,4-7[8:1],4,1,1,26,,
45,4x/5x,3x/6x,3x/6x,27,2x/7x,1x/8x,18,2b/7b,,3,24,,6,5<4[8:7]/7,,
{1} Cf,,,,,E
MASTER
(210)
{1} ,
{8} 3h[4:1]/5,,4,,3,3,5,4,6,6,4,5,
{4} 4/6h[4:1],5,35,4,46,B2/5,35,4/B7,35,46,3xh[4:1]/7V53[4:3],,2,2,1h[2:1],,C,B4,2V46[4:3]/6h[4:1],,7,7,8h[2:1],,C/B5,,4xh[4:1]/7xh[4:3],,E5,E3,2xh[4:3]/5xh[4:1],,E5,E7,
{2} 4xh[4:1]/7xh[4:1],5h[4:1]/7h[4:1],6h[4:1]/7h[4:1],7h[4:1]/8x,1x/2h[4:1],2h[4:1]/3h[4:1],2h[4:1]/4h[4:1],
{4} 36,1-5[23.3333333333#72:1]/8-4[23.3333333333#72:1],
{1} 1h[4:7]/8h[4:7],,
{8} 1b/8b,,,3/6h[8:3],,,5h[8:3],,,4h[8:3],,,3x,,4x/5x,,2h[8:3]/7x,,,3h[8:3],,,4h[8:3],,,5h[8:3],,,6x,5x,4x/7x,,3h[8:3]/6x,,,2h[8:3],,,1h[8:3],,,8h[8:3],,,7x,,1x/6x,,2x/8h[8:3],,,6h[8:3],,,4h[8:3],,,2h[8:3],,,1x,3x/8x,4x/7x,,3h[8:3],,4,6h[8:3],,5,3h[8:3],,4,6h[8:3],,5,4x-8[8:1],,3x,,2h[8:3],,1,7h[8:3],,8,2h[8:3],,1,7h[8:3],,8,2x,3x/6x,4x/5x,,7h[8:3],,5,2h[8:3],,4,7h[8:3],,5,2h[8:3],,4,7x-3[8:1],,1x,,2h[8:3],,1,7h[8:3],,5,
{4} 3p6[4:1],4b,,1x/8x,4x/5x,2b-5[8:1]/6b,2/8-4[8:1],3-8[8:1]/8,3/5-1[8:1],2>5[8:1]/5,28,17,
{8} 34,2,
{4} 1x/8V64[8:1],4-8[8:1],8-4[8:1],4,
{16} 1x/8x,,6,5,6,5,6,5,8x,,3,4,3,4,3,4,
{4} 2x-5[8:1],2/6-2[8:1],4-8[8:1]/6,48,16,
{8} 56,47,38,
{16} 2,1,2,,18,,2x/7x,,6,5,7,,3,4,2,,6,5,7,,3,4,
{8} 3>8[8:1],,7,7<4[8:1],,1,
{4} 1b,3b/7b-4[8:1],1-5[8:1]/7,1/6-1[8:1],4-8[8:1]/6,4/7<4[8:1],17,
{8} 12,3,46,7,1V35[8:1]/8x,,5-1[8:1],,1-5[8:1],,5,,
{16} 1x/8x,,3h,4h,3h,4h,3h,4h,1xh,,6h,5h,6h,5h,6h,5h,
{4} 8xw4[8:1],8x,2x/6x,5x-3[8:1]/6x,7x-5[8:1],2x,
{8} 1x/2x,3,45,6,5-1[8:1]/7-5[8:1],,,,2-4[8:1]/4-8[8:1],,,,5x/7x,,3x/4x,,1b/8b,2x/8x,3x/8x,4x/8x,
{4} 5/7-5[8:1],4/7-1[8:1],3/7-3[8:1],2-6[8:1]/7,1/2-4[8:1],28,
{8} 5x/6x,7x,6x/8x,1x,
{4} 2/4-8[8:1],34,5-1[8:1]/7,56,2x-5[8:1]/4x,
{8} 6,7,
{4} 8,1x/7x,2-4[8:1]/4,2-8[8:1]/5,2-6[8:1]/6,2/7-3[8:1],7-5[8:1]/8,17,
{8} 2x/4x,3x,4x/5x,6x,
{4} 5xv8[8:1]/7x-5[8:1],57,2x-4[8:1]/4xv1[8:1],24,5x/7x-3[8:1],17,
{16} 1,5,2,6,3,7,4,8,
{1} 1b/5b<5[4:5],,
{4} B2/B3,B6/B7,
{8} B5,B4,
{4} E4,E3/E7,,E1,E5,
{8} Ch[1:1],,,B1,,,B8,,E1,,,,E6,B5,B4,,B2/B3,,,,E4,B4,B5,,B6/B7,,,E5,,,E3,,B1/B8,,,E5,,,
{4} E7,E1,C,E5,,4b/5b,36,
{8} 5,4,
{4} 3<6[2:1],6,,7,6,
{8} 45,,,3,3,,46,,3/5h[2:1],,,,4,5,4,,2h[4:1]/4h[4:1],,,,5,4,5,,5h[4:1]/7h[4:1],,,,4,5,4,,
{1} 2/4-8[2:1],5-1[2:1]/7,2h[4:3]/4<8[2:1],5>1[2:1]/7h[4:3],
{8} 2b/8b,,1,1h[4:1],,3,3h[4:1],,5,5h[4:1],,6,47,,25,,4/8h[4:1],,6,6h[4:1],,4,4h[4:1],,2,2h[4:1],,1,38,47,
{4} 56,4/7-4[8:1],2-5[8:1]/7,2/8-4[8:1],18,
{8} 25,25,36,36,
{32} 4,5,6,7,8,1,2,3,4-8[26.25#64:1],5-1[26.6666666667#63:1],6,7,8,1,2,3,
{4} 4xh[2:3]/5xh[2:3],,,,,,,4b/5b,2x/7x,
{16} 6x,5,6,,7x,,1,8,1x,,2,,3x/5x,,4,,6x,5,
{8} 6,7/8x,1,2/4x,3/5x,4/6x,
{16} 7,8,7x,,1,,3x,4,3,,5x,,1/8x,2x/7,
{8} 3/6x,,1/2x,3/8x,,3/4x,4/5x,5/6x,4b/7b,
{16} 6,5,6x,,4,,2x,1,
{8} 2,8x,7x,5/6x,
{16} 3,4,3x,,2x,,8,1,
{8} 8x,37,6x,2x-6[8:1]/5,2/5x,2x/5,,4/8x,5x/7,,1x/8,2/4x,3/5x,4x/6,5/7x,
{16} 1x,8x,2x,7x,3x,6x,4x,5x,2b/7b,,,,3x,4,3,,2x,,8,1,
{8} 8x,7,4x/6x,5,
{16} 3x,4,
{8} 3,1x/2,8,5/7x,4x/6,3/5x,
{16} 2,1,2x,,8,,6x,5,6,,3x,4x,3x,4x,
{4} 2x-5[8:1]/5,2/6x-1[8:1],6/8x-4[8:1],
{16} 7x/8,,6,,2b/5b,,3,4,3x,,5,,7x,8,7,,1x/2,,3,,4b/5b,,6,5,6x,,7,,1x,8,
{8} 1,3/4x,3x/4,2b/5b,,5x/6,47,,34,2x/5x,3x/6x,
{16} 4xh[8:1]/7xh[8:1],,,2xh[8:1]/5xh[8:1],,,
{8} 1x/8x,,4x/5x,4x/5x,2b/7b,,
{16} 3,4,3,,25,,6,5,7,5,6,,3,,12,,7,8,6,,57,,3,4,2,4,3,,6,,1/7<5[16:1],,2,3,7>1[16:1],,2,3,7-3[16:1],,2,3,7,,1,,1b/5b,,,,48,,48,,
{24} 7,6,5,2,3,4,
{16} 8b,,,,3x/7,,6,5,6,,45,,3-1[8:1],4,3,4,3,,8,,2x/6x,,3,4,3,,45,,6-8[8:1],5,6,5,
{8} 6,2,13,13,24,35,46,57,
{16} 1,8,1,8,2b-5[8:1]/7b-4[8:1],,,,27,,,,
{32} 1x/8x,2,3x,4,5x,6,7x,8,
{16} 1b/5b,,,,3x/8x,,6,5,6,,47,,3,4,2,4,3,,6,,78,,2,1,3,,24,,6,5,7,5,6,,3,,2>4[16:1]/8,,7,6,2<8[16:1],,7,6,2-6[16:1],,7,6,
{8} 2,8,3x-8[8:1]/7x-4[8:1],,3x/7x,,2b/6b,,
{24} 2,3,4,7,6,5,
{16} 1b,,3,4,3,,25,,6>3[8:1],5,7,5,6,,2,,1x/8x,,6,5,6,,47,,3<6[8:1],4,2,4,3,,7,,
{24} 1xh[4:1]/2x,3,4,5,6,,,,,7x/8xh[4:1],6,5,4,3,,,,,1x,5,1,5,1,5,
{8} 1h[4:1],,,4h[4:1]/6h[4:1],,,1/8w4[8:1],,
{1} 8b>8[4:7]*<8[4:7]`Cf,,,,,,,,,,E
Re:MASTER
- MASTER譜面の47,,35,,→47,,25,,の箇所の修正、SLIDEの速度の修正、EXノーツの修正を行いました。 -- けもがみ (2026-04-28 23:52:54)
最終更新:2026年04月28日 23:52