アットウィキロゴ

BREaK! BREaK! BREaK!

アーティスト HiTECH NINJA vs Cranky

BPM BASIC ADVANCED EXPERT MASTER Re:MASTER
165 5 8 12+ 14+ -

EXPERT MASTER Re:MASTER
譜面制作者 サファ太 サファ太 vs -ZONE- SaFaRi -

BASIC


ADVANCED


EXPERT


MASTER

(165){4},,,{8},
{48}1b/8b,27,36,4<4[48:123]/5>5[48:123],,,
{1},,,Ch[1:1],{2},
{48}1b/8b,2b/7b,3b/6b,4b<4[48:93]/5b>5[48:93],,,,,,,,,,,,,,,,,,,,,
{1},,Cf/B2/B3/E3/B6/B7/E7,
{8}2/8z4[2:1],,,,,,2,2,1xs5[2:1]/5,,,,,,6,6,7xs3[2:1]/3,,,,,,2,2,
1h[2:1]/5,,,4,{16}4x,,,3x/5x,,,{8}4x/6x,3z7[2:1]/7x,,,,,,5,5,6z2[2:1]/2x,,,,,,1,1,
{1}2qq5[2:1]/7pp4[2:1],{4}3hx[4:1]/6hx[4:1],,4-1[8:1]/5-8[8:1],E5/Cf/E1,

{16}
6,5,7,,35,,2,,46,,7,5,6,4,8,,
3,5,2,,46,,7,,35,,2,4,3,5,1,,
3,4,2,,46,,7,,35,,2,4,3,5,1,,
7h[8:1],,3,6h[8:1],,1,5h[8:1],,2,4,3,6,1,5,3,7,
4,5,2,,46,,7,,35,,2,6,4,5,1,,
6,5,7,,34,,2,,56,,7,4,6,5,8,,
4,5,2,,46,,7,,
3h[8:1],,8,2h[8:1],,6,1h[8:1],,{8}4-8[8:1],2-5[8:1],4,2,,46,2b/8b,,

{16}2,4,3,,5h[8:1],,3,4,2,,1h[4:1]/5,,,,{8}4,1/4-6[8:1],,2,2-4[8:1],,8,8,,
{16}7,5,6,,4h[8:1],,6,5,7,,8h[4:1]/4,,,,{8}5,8/5-3[8:1],,7,7-5[8:1],,1,1,,
{16}3,4,2,,1h[8:1]/5,,4,2,5h[8:3],,3h[4:1],,,,{8},3-5[8:1]/5,,7,7-3[8:1],,1,1,,
{16}7,8,6,,45,,3,4,2h[8:3],,5h[4:1],,,,,,{4}6-2[8:1]/3,2,1-5[8:1]/3-7[8:1],,

{16}
6-8[8:1],,8-4[8:1],8,,,2,,
3-1[8:1],,1-5[8:1],1,,,7,,
6-1[8:1],,1-5[8:1],1,,,4,,
3-8[8:1],,8-4[8:1],8,,,5,,
6^1[8:1],,1-5[8:1],1,,,4,,
3^8[8:1],,8-4[8:1],8,,,6,,
7h[16:3],,,5,5,6,3,4,2^5[8:1],,1,,2x/8,,8,,
7V51[4:1],,5,5,,,4,,
3V15[4:1],,8,8,,,7,,
6V84[4:1],,4,4,,,3,,
2V48[4:1],,5,5,,,6,,
7x,,15,15,,2,2,,48,48,,6,6,,3,4,
{4}1x-4[8:1]*^4[8:1],1x-6[8:1]*^6[8:1],1xw5[8:1],1x,

3x-8[8:1]/7x-4[8:1],37,{16}1h[8:1]/5h[8:1],,,2h[8:1]/4h[8:1],,,3,,
4h[8:1]/8h[8:1],,,5h[8:1]/7h[8:1],,,{8}6-2[8:1],,1,3,14,
5-1[8:1]/8-4[8:1],,58,,{16}2h[8:1]/5h[8:1],,,4h[8:1]/7h[8:1],,,26,,
{8}1s5[8:3]/5h[16:3],,,4,6,8,8,,
3x-8[8:1]/7x-4[8:1],,37,,{16}1h[8:1]/5h[8:1],,,2h[8:1]/4h[8:1],,,37,,
6,56,,3,34,,6,57,,3,24,,1x/8x,,,,
1,8,1,8,1,8,1,8,{32}1,2,3,4,8,7,6,5,2,3,4,5,7,6,5,4,{4}Chf[2:1],,1x,

7v4[8:1]/3<7[4:1],3x/7x>3[4:1],4-1[8:1],4xqq8[8:7],8x,8,7-3[8:1],7x,15,
{16}2,4,2,4,3h[8:1],,7,5,7,5,6h[8:1],,1,8,1,8,{8}2-5[8:1]/7-4[8:1],,27,,1,7,
{4}2v5[8:1]/6>2[4:1],6x/2x<6[4:1],5-8[8:1],5xpp1[8:7],1x,1,2-6[8:1],2x,48,
{16}7,5,7,5,6h[8:1],,2,4,2,4,3h[8:1],,
8,1,8,1,{24}E8,E7,E6,E2,E3,E4,{32}B8,B7,B6,B5,B1,B2,B3,B4,{4}Chf[2:1],,E2/E3/E7/E8,1x/8x,

{16}2h[8:1],,4,3h[8:1],,1,4h[8:1],,
7h[8:1],,5,6h[8:1],,8,5s1[8:3],,1h[16:1],,1h[16:1],,2h[16:1],,2h[16:1],,2x,,
3,3,,46,4z8[8:3]/6,,8h[16:1],,8h[16:1],,7h[16:1],,7h[16:1],,{8}7V53[4:1],,3,2,1,8,
{4}7V53[4:1]/3V57[4:1],3x/7>7[2:1],,Cf,,
{16}1/6h[8:1],,8,7h[8:1],,5,8h[8:1],,3h[8:1],,1,2h[8:1],,4,1,,
8,1,8,1,8,1,8,1,1x/8,1/8x,1x/8,1/8x,{24}1x/8,2/7x,3x/6,4/5x,,,
{8}Ch[8:5],,,,,{24}8,7,6,5x/1x,,,{16},,

2-5[16:1],1,3,1,2b,,7-4[16:1],8,6,8,7b,,
2^5[16:1],1,3,8,2b,,7-3[16:1],8,6,1,7b,,
2,1,3hx[8:1],,4,,25,,6-1[16:1],5,7,4,6b,,
3-8[16:1],4,2,5,3b,,7,1,7,1,{32}7bv4[8:1],6,5,4,3-8[16:1],2,1,8,{8}7x,3x,5,1,3b/7b,{16}6,5,
7-4[16:1],8,6,1,7b,,2-5[16:1],1,3,8,2b,,
7^4[16:1],1,6,5,7b,,2-6[16:1],8,3,4,2b,,
7,8,6hx[8:1],,5,,47,,3-8[16:1],4,2,6,3b,,
6-1[16:1],5,7,3,6b,,2,8,2,8,{32}2b-6[8:1],3,4,5,6,7,8,1,2/6x,,,,8,,,,8,7,6,5,4,3,2,1,8x/4x,,,,,,,,
{16}7b-4[16:1],4,6,8,7b,,2b-5[16:1],5,3,1,2b,,
7b^4[16:1],4,6,8,7b,,2b-6[16:1],8,4,6,2b,,
7b,8,6hx[8:1],,5,,18,,2b^5[16:1],5,3,1,2b,,
7b-3[16:1],1,5,3,7b,,2b,1,2,1,{32}2bv5[8:1],3,4,5,6-1[16:1],7,8,1,{8}2x,6x,4,8,2b/6b,,
{16}B6,B4,B8,B2,B5,B3,B7,B1,E6,E4,E8,E2,Ch[4:1],,,,
B2/E3,B8,B4/E5,B6,B1/E1,B7,B3/E3,B5,E2/B2,E8/B8,E4/B4,E6/B6,1hx[4:1],,,,
{24}8,7,6,5,4,3,7,6,5,4,3,2,{16}7,8,6,1,5,2,4,3,{4}5>5[8:3]*<5[8:3],,,2b/8b,

{16}7/1-5[8:1],2,3-8[8:1],,1,,3,,6-1[8:1],,1,2,36,,5,,
8-4[8:1]/4,7,6-1[8:1],,8,,6,,3-8[8:1],,8,7,63,,4,,
1-5[8:1]/5,2,3-8[8:1],,1,,3,,6-1[8:1],,1,2,{8}3^8[8:1]/6,5,
7-3[8:1]/3,6,7/2^5[8:1],1,8-4[8:1]/2,7,1b/8x,,
{16}
3/5-1[8:1],6,7-4[8:1],,5,,7,,2-5[8:1],,5,6,72,,1,,
4-8[8:1]/8,3,2-5[8:1],,4,,2,,7-4[8:1],,4,3,27,,8,,
2,1,3,,48,,7,5,6h[8:1],,4,5h[8:1],,3,4h[8:1],,{8}2^5[8:1],1v6[8:1],2,1,,78,1b/5b,,

{16}
46,,2,2h[8:1],,4,4h[8:1],,5,5h[8:1],,7,7h[8:1],,8,6,1,5,2,4,3,1,3,8,4,6,3,7,
2,8h[8:1],,1,1,4,2,8,3,7,2,6,5,7,4,6,2,2,4,3,6,4,5,2,7,8,6,3,3,7,5,6,4,5,3,4,
2x,2,4,5x,5,7,2x,2,4,5x,5,7,1x,1,3,8x,8,6,2x,2,4,7x,7,5,2x,1,2,8hx[16:5],,,,,
3,3,7,7,{32}4,5,6,7,8,1,2,3,
{16}7,7,5,5,{32}3,2,1,8,7,6,5,4,{16}1,1,3,3,{32}5,6,7,8,1,2,3,4,
{16}8,8,6,6,{32}4-8[16:1],3,2,1,8,7,6,5,{192}2x/4x,{1}Cf,,,,,E

Re:MASTER


  • 4,5,3,,→4,5,2,,、7,8,7,,→7,8,6,,の箇所の修正、SLIDEの速度の修正、花火エフェクトの修正を行いました。 -- けもがみ (2026-01-31 22:36:47)
名前:
コメント:

タグ:

+ タグ編集
  • タグ:
最終更新:2026年04月07日 21:19