BASIC
ADVANCED
EXPERT
(234){1},
Cf/E3/E7/B2/B3/B6/B7,,5w1[4:5],,{4}3,4,{8}25,,,6h[8:3],,,{4}5,47,,3,34,6,56,34,45,56,2b/7b,{8}3xh[4:1]/8x,,4,4,3,,25,,6h[4:1],,5,5,6,,47,,2,2,4,,7,7,5,,2,2,1,1,3,,48,,{1}1/6xq4[2:1],{8}34,,12,1h[8:3]/2h[8:3],,,,,{1}3x<2[1:1]/8,{4},,,3b/8b,1x/6xh[4:1],{8}5,5,6,,47,,3h[4:1],,4,4,3,,25,,7,7,5,,2,2,4,,7,7,8,8,6,,15,,{1}3xp5[2:1]/8,{8}56,,78,7h[8:3]/8h[8:3],,,,,1x/6x,1x-5[4:1]/6x,{4},,,E5,B4/B5,B3/B6,E3/E7,
{1}1xh[1:3]/8x>7[4:11],,,{2},45,{4}B4,B3/B2,B5,B6/B7,E5,E4,E3,E2,E5,E6,E7,E8,{2}E1,Cfh[2:1],B2/B7,,{4}6,5,4,35,2,3,4,56,7,6,5,4,3h[4:1],4,12,38,6h[4:1],5,78,61,2b/7b,{8}8x,8,1,1,7,7,3x,3,6,6,4,4,5,5,{1}3xpp6[4:5]/6x,,
{4}7x/8x,1-5[4:1]/6,5,6,{8}8,8,{4}5,6h[4:1]/7h[4:1],,3/8-3[4:1],4,5-2[4:1],,1,3,24,{8}1,1,1b,,34,,{16}5xh[16:3],,,6xh[16:3],,,7x,,{8},18,{4}1/8-4[4:1],,,24,35,46,{8}8,8h[4:1],,6,6h[4:1],,4,4h[4:1],,2,{4}2b,3/8-4[4:1],4,3,{8}1,1,{4}4,2h[4:1]/3h[4:1],,1-6[4:1]/6,5,4-7[4:1],,8,6,57,{8}8,8,8b,,56,,{16}4xh[16:3],,,3xh[16:3],,,{8}2x,,18,{4}1-5[4:1]/8,,,{16}6xh[16:3],,,8xh[16:3],,,1xh[16:3],,,3x,,,2x/4x,,,,3xh[16:3],,,1xh[16:3],,,8xh[16:3],,,6x,,,{4}5x/7x,
1b/8b,,{8},6,6,,45,,3,3,,25,,4/7h[8:3],{4},5,2h[4:1],4,8h[4:1],5,1h[4:1],4,5>2[4:1],2<7[4:1],,,4<7[4:1],7>2[4:1],,,5,34,{8}8,1,27,,45,45,,B3/B6/Cf,{4},,2x/8x,1x-5[4:1]/7xh[2:3],,,E8,E7,E6,E5,1x/7x,2xh[2:3]/8x-4[4:1],,,E4,E3,E2,E1,3x/5x,4x-8[4:1]/6xh[2:3],,,E8,E7,E6,E5,24,36,57,18,{12}1x,8x,1x,8x,1x,8x,{2}1b,2-5[2:1]/7-4[2:1],,
{4}2b/7b,34,12,34,45,56,78,56,45,13,45,68,27,{12}4x,5,4,{4}5h[4:1],4,12,47,{12}6x,5,6,5,,,7x,8,7,{4}8,16,34,56,78,{12}2x,1,2,{4}1,34,56,2b/7b,,1x/2x-5[8:1],8,7-4[8:1],1,3-8[8:1],5,6-1[8:1],4,2-4[8:1],8-6[8:1],1-5[8:1],,7-5[8:1],1-3[8:1],8-4[8:1],,3,{16}2x,1,2,1,{4}2,3b,45,{16}7x,8,7,8,{4}7,6b,7-4[8:1],2-5[8:1],8-4[8:1],1-5[8:1],{8}7,7,7,7,2x,2,1,1,5x,5,6,6,{16}1x,8,1,8,1,8,1,,{1}Ch[1:1],,{4},E7,C,E3,
{8}1x/8x,1xh[8:3]/8xh[8:3],,,,,56,,4x/7x,4xh[8:3]/7xh[8:3],,,,,34,,2x/5x,2xh[8:3]/5xh[8:3],,,,,12,,3x/8x,3xh[8:3]/8xh[8:3],,,,,27,,34,3x/4x,,57,5x/7x,,13,1x/3x,,78,{4}7x-4[4:1]/8x-3[4:1],,,{8}56,5x/6x,,24,2x/4x,,68,6x/8x,,12,1x/2x,,{16}2x/7x,,,3x/6x,,,4x/5x,,{4},2b/7b,{8}3,3,5,5,8,8,7,7,16,,{16}3,4,3,4,{8}3,,2x/5x,,6,6,4,4,1,1,2,2,38,,56,,{16}7x,8,7,8,7,8,7,8,7,8,7,8,7,,,,2x,1,2,1,2,1,2,1,2,1,2,1,{4}2,1x/8x,{8}56,4b/7b,,34,2b/5b,,78,1b/6b,,12,{4}3b/8b,5x/6x,2x-6[8:1],1x-5[8:1],8x-4[8:1],7x-3[8:1],{8}1x,1,1,1,{16}8x,7,6,5,4,3,2,1,
{1}8bw4[4:7],,,,{4}6,5,47,{8},3h[8:3],,,{4}4,25,,6,56,3,34,56,45,34,2b/7b,1x/8x,{8}12,12,38,38,47,47,5x/6x,,{16}3,4,3,4,2b,,,,6,5,6,5,{8}7b,,78,78,16,16,25,25,3x/4x,,{16}6,5,6,5,7b,,,,3,4,3,4,{4}2b,6x/8x,4x/5x,1x/3x,{16}1x/8x,2,3,4,5,6,7,8,1x,2,3,4,5,6,7,8,{2}1xh[2:1]/5b,8w4[4:1],
E
MASTER
(234){4},,,{8},
{24}1b,28,3qq5[12:41]/7qq1[12:41],46,5,,,,,,,,,,,{2},,,,,,,
{4}34,34,{8}5/2h[4:1],,1,1h[4:1],,3,3h[4:1],,{4}4,25,
{4}6,56,{8}4/7h[4:1],,8,8h[4:1],,6,6h[4:1],,
{16}1,2,3,4,8,7,6,5,
{4}2b-4[8:1],7-5[8:1],1-3[8:1],{8}6,6,
{4}4-2[8:1],5-7[8:1],3-1[8:1],{8}6,6,
{4}2-4[8:1],7-5[8:1],1-3[8:1],{8}6,6,
{4}47,25,{8}4,4,5,5,3b/6b,,
5h[16:1],5h[16:1],5h[16:1],5h[16:1],5h[16:1],5h[16:1],
4h[16:1]/5h[16:1],4h[16:1]/5h[16:1],3h[16:1]/6h[16:1],3x/6x,,45,4/5<4[8:3],,
{4}Cf,,,{4}1,3q6[16:5],,,2b/7b,
{8}5,5,2,2,{16}4h[16:3],,,1h[16:3],,,8h[8:1],,
{8}4,4,7,7,{16}5h[16:3],,,8h[16:3],,,1h[8:1],,
{8}5,5,2,2,{16}4h[16:3],,,1h[16:3],,,8,,
{8}4,4,7,7,26,26,15,15,1b/5b,,
{16}3,4,3,,6,5,6,,3,4,3,,5,4,5,4,5,,
{8}3x/6x,,1,8,7,2b/6b,{8}2b-5[4:1]/6b-1[4:1],,,,,,,
{12}B6,E6,,E2,B2,,E8,B7,,B3,E4,,
{4}6x,6,4,4,5,5,3,{12}3h[6:1],,4,{4}3,3,5,5,4,4,6,{12}6h[6:1],,5,{4}6,
45,{12}3h[6:1],,4,3,,,6h[6:1],,5,6,,,3h[6:1],,4,3,,,
45,,5,4,,4,5,,5,{4}4h[4:1],5,36,27,,
{12}3b/5b,,3,5,,5,4,,4,6,,6,3,,3,5,,5,4,,4,6,,6,2,,2,4,,4,5,,5,7,,7,1,,1,8,,8,2,,2,7,,,
{4}5b/6h[2:1],7V51[4:1],,8,4b/3h[2:1],2V48[4:1],,1,{8}2b/7b,,6,6,2,2,7,7,
{16}1,8,1,8,1,8,1,8,1,8,1,8,1,8,1,8,
1b,2,3,4,5,6,7,8,1,2,3,4,5,6,7,8,1,2,3,4,5,6,7,8,1,2,3,4,5,6,7,8,
{4}1b-5[8:1]/5b,,{8}6,6,2x,2x,
E6/B5,E2/B2,E8/B7,B4/E4,Ch[4:1],,1b,,
8z4[4:1],8,,3,3,,{4}2>8[8:3],5hx[2:1],,,
{8}1,1,{2}2bv5[8:1]/8bv5[8:1],{16}4h[8:1]/7h[8:1],,,2h[8:1]/5h[8:1],,,
6^1[8:1]/3,,,,{24}61,2,3,4p2[4:1],,,{8},Cf,,,,
7x-4[8:1],,3-8[8:1],,6V84[4:1],,3,3,,26,26,,3-8[8:1]/7-4[8:1],,3x/7x,,
1b/5b,,26,,3,3,7x,7x,
B4/E4,B7/E8,E2/B2,B5/E6,Ch[4:1],,8b,,
1s5[4:1],1,,6,6,,{4}7<1[8:3],4hx[2:1],,,
{8}6,6,{2}3b-8[8:1]/7b-4[8:1],{16}1h[8:1]/5h[8:1],,,2h[8:1]/6h[8:1],,,
3^8[8:1]/7,,,,{24}83,7,6,5q7[4:1],,,{8},Cf,,,,
{16}2x-5[16:1],,,7x-4[16:1],,,1x-5[16:1],,,8x-4[16:1],,,2x,,2x,,
3x-8[16:1],,,6x-1[16:1],,,4x-8[16:1],,,5x-1[16:1],,,3x,,3x,,
{8}Cf,,18,18,,3,4,5,6,,78,78,,56,,4/7h[8:3],,,
{16}2,3,4,5,8,7,6,5,1,2,3,4,7,6,5,4,3,2,1,8,72,3,4,5,6,7,8,1,{4}26,37,
{16}8,7,6,5,8,1,2,3,{4}48,26,{16}1,2,3,4,1,8,7,6,
{4}1-3[8:1]/5-7[8:1],15,4-2[8:1]/8-6[8:1],48,15,{8}37,3h[4:1]/7h[4:1],,,C,,
{16}26,,,1,1h[4:1],,3,4,5,6,7,8,1,2,3,4,{8}51,,47,47,,25,25,,
{16}37,,,8,8h[4:1],,6,5,4,3,2,1,8,7,6,5,{8}48,,25,25,,47,47,,
{16}26,,,5,5h[4:1],,7,8,1,2,3,4,5,6,7,8,{8}15,,38,38,,26,26,,
{4}5h[16:3]/7h[16:3],2h[16:3]/4h[16:3],7h[16:3]/8h[16:3],15,
{12}2b,4,3,7,5,6,1b,,,8<1[8:3],,,{1}Cf,
{12}2,,2,8,,8,1,,1,7,,7,2,,2,8,,8,1,,1,7,,7,3,,3,1,,1,8,,8,6,,6,5,,5,8,,8,
5,7,4,6,3,5,4w8[8:1],,,4b,,,5w1[8:1],,,5b,,,
3,4,3,2b/5b,,,47,,,1b/8b,,,
27,,2,4,,4,5,,5,7,,7,1w5[8:1],,,1,,,3b/7b,,,,,,
7,,7,2-6[8:1],,2,5-8[8:1],,5,1-4[8:1],,1,
7-3[8:1],,7,5-2[8:1],,5,8-3[8:1],,8,1-6[8:1],,1,
4-8[8:1],,4,2-5[8:1],,2,6-1[8:1],,6,3-8[8:1],,3,
7-4[8:1],,7,2,,2,8,8,1,2b/7b,,,
{16}8,5,8,5,8,5,8,5,8,5,8,5,{4}7b,
{16}1,4,1,4,1,4,1,4,1,4,1,4,{8}2b-6[8:1],,{64}2x/6x,Cf,,,,,,,,,,,,,,,
{8}7,7,1,1,6,6,3,3,2x/6x,,1b/7b,,
{16}8,8,8,8,8,8,8,8,8,8,
8h[1280:1],8h[1280:1],8h[1280:1],8h[1280:1],8h[1280:1],
8h[1280:1],8h[1280:1],8h[1280:1],8h[1280:1],8h[1280:1],
8b,7,6,5,4,3,2,1,8,7,6,5,4,3,2,1,{1}8hx[4:7]/4hx[4:3],{4},E6,E5,E4,
{8}1b/2b,8/3h[8:5],,,,,4,,56,4/7h[8:5],,,,,8,,12,8/3h[8:5],,,,,4,,
26,26,,,35,,46,,2b/5b,25,,47,47,,16,16,,38,38,,{16}2h[8:1]/4h[8:1],,,5h[8:1]/7h[8:1],,,36,,
{8}1b/2b,B5/B6/E7,,7x/8x,E3/B3/B4,,1x/8x,2x/7x,,36,,47,
{16}4h[8:1]/7h[8:1],,,2h[8:1]/5h[8:1],,,4b/8b,,,,,,
7,6,2,3,8,7,1,2,7,6,2,3,8x,7,6,5,7x,6,5,4,6x,5,4,3,5x,4,3,2,1x/5x,,,,
2,3,7,6,1,2,8,7,2,3,7,6,1x,2,3,4,2x,3,4,5,3x,4,5,6,4x,5,6,7,4b/8b,,,,
6x,5x,6x,5x,6x,5x,6x,5x,8x,,,,2b/7b,,,,3x,4x,3x,4x,3x,4x,3x,4x,1x,,,,
4b/7b,,6,5,6,,7,,3,4,3,,2,,5,,3b/6b,,7,8,7,,6,,2,1,2,,3,,8,,
{24}3b,4,5,6,7,8,1,2,3,4,5,6,7,8,1,2,3,4,5,6,7,8,1,2,
{32}8b/3x,7,6,5,4,3,2,1,8,7,6,5,4,3,2,1,8,7,6,5,4,3,2,1,8,7,6,5,4,3,2,1,{1}8b/4b,,,,
{4}5/6h[2:1],,{16}B6/B7,,,,,,{8}45,,,{4}3h[4:1]/4,B2/B3,45,
6,6,3,3,{8}5,5,4,4,6,6,3,3,
2b/7b-4[8:1],7,7/2-5[8:1],2,2/6-1[8:1],6,63,3,{16}27,,
3,4,3,4,3,,7,,6,5,6,5,6,,
{8}7/2b-5[8:1],2,2/7-4[8:1],7,7/3-8[8:1],3,36,6,{16}27,,
6,5,6,5,6,,2,,3,4,3,4,3,,
{32}2h[8:1],,,,8,7,6,5,1b,,,,7,6,5,4,1b,,,,8,7,6,5,1b,,,,7,6,5,4,
{12}2b,2,2,7,7,7,5,5,5,
{32}4b,3,2,1,84,73,62,51,{2}4b/8b,
{16}26,,,,8-4[8:1],1,7,2,{32}8b,{1}Cf,,,,E
Re:MASTER
- SLIDEの速度の修正、ノーツの開始位置の調整を行いました。 -- けもがみ (2026-01-29 19:38:04)
- EXPERT譜面を追加しました -- paru (2026-01-31 21:24:04)
最終更新:2026年03月29日 15:37