アットウィキロゴ

Paradisus-Paradoxum

アーティスト

BPM EASY BASIC ADVANCED EXPERT MASTER Re:MASTER
201 2 5 7 10+ 13 -

EXPERT MASTER Re:MASTER
譜面制作者 -

EASY


BASIC

(201.0){1},,,,,,
{2}1,1,
{2}8,8b,
{2}1,1,
{2}2,2,
{2}3,3,
{1}4h[2:1]/5h[2:1],
{2}5/6,5/6,
{2}3/4,3/4,
{1}3h[8:7]/6h[8:7],,
{2}5,5,
{2}5,5,
{2}6,6,
{2}6,6,
{2}7,7,
{2}7,7,
{2}8,8,
{2}8,8,
{1}1-4[4:3],,
{1}8-5[4:3],,
{1}1-4[4:3],,
{1}8-5[4:3],,
{2}4,4,
{2}3,3,
{2}2,2,
{1}1/8,
{2}8,8,
{2}7,7,
{2}6,6,
{1}4b/5b,
{2}6,6,
{2}7,7,
{4}8,8,8,,
{1}1/8,
{2}8,8,
{2}1,1,
{1}2h[2:1]/7h[2:1],
{2}1/8,1/8,
{1}1b/8b,
{2},1b/8b,
{4}1,1,1,,
{4}2,2,2,,
{4}3,3,3,,
{1}4/5,
{2}6,6,
{2}7,7,
{1}8h[1:1],
{2},1b/8b,
{4}8,8,8,,
{4}7,7,7,,
{4}6,6,6,,
{1}4h[2:1]/5h[2:1],
{2}3/4,3/4,
{2}5/6,5/6,
{1}3h[8:7]/6h[8:7],,
{2}4,4,
{2}3,3,
{2}2,2,
{2}1,1/8,
{4}8,8,8,,
{4}7,7,7,,
{4}6,6,6,,
{4}5,5,5,
E

ADVANCED

(201.0){1},,,,,,
{4}5/6,5/6,3/4,3/4,
{4}4/5,4/5,3b/6b,,
{4}2,1,8,7,
{2}1/6,7/8,
{4}6,5,4,3,
{2}2/5,3/4,
{2}6h[2:1],5,
{2}3h[2:1],4,
{2}5h[2:1],6h[2:1],
{2}7h[2:1],8h[2:1],
{1}1b>6[8:9],,
{1}8w4[4:3],,
{4}3h[4:3],,4,4,
{4}3/4,3/4,2/5,,
{4}6h[4:3],,5,5,
{4}5/6,5/6,4/7,,
{2}3h[2:1],4,
{2}6h[2:1],5,
{2}3h[2:1],2h[2:1],
{2}1h[2:1],8,
{2}7h[2:1],8,
{2}2h[2:1],1,
{1}7s3[8:9],,
{4}3,4,4,,
{4}6,5,5,,
{4}3,4,6,5,
{4}4/5,4/5,3/6,,
{4}2,1,1,,
{4}7,8,8,,
{4}1,8,{2}1^4[8:5]/8^5[8:5],{1},
{4}4/6,,4,4,
{4}3/5,,6,6,
{4}5/7,,3,3,
{4}2/4,,7,7,
{4}6/8,,2,2,
{4}1/3,,8,8,
{4}1/7,2/6,3/5,,
{4}4/6,3/7,2/8,,
{4}1/2,1/2,7/8,7/8,
{4}1/8,1/8,2b/7b,,
{4}3,4,5,6,
{4}4/7,4/7,5/6,,
{4}7,8,1,2,
{4}3/8,3/8,1/2,,
{4}7h[2:1],8,8,,
{4}2h[2:1],1,1,,
{1}7-4[8:3],
{1}2-5[8:3],
{4}6,5,4,3,
{4}2/5,2/5,3/4,,
{4}2,1,8,7,
{4}1/6,1/6,7/8,,
{2}2h[2:1],1,
{2}7h[2:1],8,
{2}1h[2:1],2h[2:1],
{2}3h[2:1],4h[2:1],
{1}5b<2[8:9],,
{1}4w8[4:3],,
{4}1/2,3/8,4/7,,
{2}5h[4:1]/6h[4:1],4b/7b,
{4}7/8,1/6,2/5,,
{2}3h[4:1]/4h[4:1],2b/5b,
E

EXPERT

(201.0){1},,,,,,
{8}3/8,,,7/8,,1/6,,2/7,
{8},4/5,4/5,,3/6,,4/5,,
{8}2b/7b,,3,4,,2/5,,6/8,
{4},1/3,3h[4:1],4,
{8}2/7,,6,5,,4/7,,1/3,
{4},6/8,7h[4:1],6h[4:1],
{4}5h[1:1],4,3,2,
{4}1h[1:1],8,7,6,
{8}5h[2:1],,,,4,,,3-8[8:1],
{8},,5-8[8:1],,,4-8[8:1],,,
{1}5bw1[4:3],
{8},,,,,1/6,,7/8,
{1}7^4[8:5]/8^3[8:5],
{4},,5/6,4/7,
{2}3h[4:3],4h[4:1],
{4}5/6,4/7,3/4,1/6,
{2}6h[4:3],5h[4:1],
{4}3/4,2/5,5/6,3/8,
{2}4h[2:1],5h[2:1],
{2}6h[2:1],7h[2:1],
{1}8pp4[4:5],,
{2}5h[2:1],4h[2:1],
{2}3h[2:1],2h[2:1],
{1}1s5[4:3],
{1}2q7[2:1],
{8}7/8,,7,8,,6,5,,
{8}4/7,,6,5,,3,4,,
{8}2/5,,3,4,,2,1,,
{8}3/8,,8h[8:3],,,1,,,
{8}1/2,,2,1,,3,4,,
{8}2/5,,3,4,,6,5,,
{8}3/6,,5,4,5,,4/5,,
{4}2/4,5/7,3/6,1/8,
{4}1^4[4:1],,8,8,
{4}7^4[4:1],,2,2,
{4}1^4[4:1],,7,7,
{1}6^1[8:3]*^3[8:3],
{4}8^5[4:1],,1,1,
{4}2^5[4:1],,8,8,
{1}1V75[16:7]*V35[16:7],
{4}3/4,5/7,1/3,7/8,
{8}1/6,,,1/2,,3/8,,2/7,
{8},4/5,4/5,,3/6,,4/5,,
{8}2b/7b,,3,4,,1/6,,4/7,
{4},2/5,3h[4:1],4,
{8}2/7,,6,5,,3/8,,2/5,
{4},4/7,6h[4:1],5,
{4}3/5,4,4/6,5,
{4}2/4,3,5/7,6,
{2}5/3-8[4:1],6-1[4:1],
{1}4z8[2:1],
{8}4/7,,6,5,,3/8,,2/5,
{4},4/7,6h[4:1],5,
{8}2/7,,3,4,,1/6,,4/7,
{4},2/5,2h[4:1],3h[4:1],
{4}4h[1:1],5,6,7,
{4}8h[1:1],1,2,3,
{8}4h[2:1],,,,5,,,6-1[8:1],
{8},,4-1[8:1],,,5-1[8:1],,,
{1}4bw8[4:3],
{8},,,,,3/8,,1/2,
{1}1^6[8:5]/2^5[8:5],
{4},,4,5,
{4}3/4,5/7,1^4[8:3]/6^1[8:3],,
{2},3/7,
{4}5/6,2/4,3^8[8:3]/8^5[8:3],,
{2},2-5[4:1]/6-1[4:1],,
E

MASTER

(201.0){1}1>8[2:3],,
{1}1>8[2:3],,
{1}1h[4:7],
{1}5h[4:3],
{8}1/5,2-5[8:1]/6-1[8:1],,2/6,,3-8[8:1]/7-4[8:1],,3/7,
{8},1/5,3b/7b,,2-7[8:1]/6-3[8:1],,2/6,,
{8}1/5,,3,2/4,,1/8p2[4:1]*V64[4:1],,,
{4},5/6-2[8:1],3-8[8:1],5-1[8:1],
{8}4h[4:1],,3,2,,8/1V35[4:1]*q7[4:1],,,
{8},,3/4,,4/6,5,4,3,
{4}2^5[8:1]/6^1[8:1],2/6,3/7,1/5,
{4}3^8[8:1]/7^4[8:1],3/7,2/6,4/8<2[2:1],
{8}1h[8:7],,,,,,,6b-1[8:1],
{8},,4b-8[8:1],,,5b-1[8:1],,,
{8}3b,,4/7,5/6,,1/2,3/8,,
{8}2,4,5,6^1[8:1],,3-7[8:1],,5,
{8}5,,2/5,3/4,,7/8,1/6,,
{8}7,5,4,3^8[8:1],,6-2[8:1],,4,
{8}4,,4/7,5/6,,1/2,3/8,,
{8}2,4,5,6^1[8:1],,3-7[8:1],,5,
{8}5,,2/5,3/4,,7/8,1/6,,
{8}7,5,4,3^8[8:1],,7,6,5,
{1}4h[4:3]/3qq8[4:5],
{1}5h[4:3],
{1}6h[4:3]/8pp3[4:5],
{1}7h[4:3],
{1}5h[4:3]/6pp1[4:5],
{1}4h[4:3],
{1}3h[4:3]/1qq6[4:5],
{4}2h[4:3],,,4,
{8}5/7,,3,4-8[8:1],,4,1,,
{8}2/4,,6,5-1[8:1],,5,8,,
{8}5/7,,3,4-8[8:1],,4,1,,
{8}2/4,,6,5-1[8:1],,5,8,,
{8}5/7,,3,4^7[8:1],,4,8,,
{8}2/4,,6,5^2[8:1],,5,1,,
{8}5/7,6,2/4,3,5/8,6,1/4,3,
{4}4-1[8:1]/5-8[8:1],4/5,3/6,8/1>5[4:1],
{4}5<1[4:1],1>5[4:1],5<1[4:1],1,
{4}5,3/4,4/6-1[8:1],5,
{4}3/6-1[8:1],5,5/3-8[8:1],4,
{4}6/3-8[8:1],4,4/5,1/8<4[4:1],
{4}4>8[4:1],8<4[4:1],4>8[4:1],8,
{4}4,5/6,3/5,5/7-4[8:1],
{4}2-6[8:1],8-4[8:1],1,1-3[8:1]/8-4[8:1],
{4}1-5[8:1]/8-6[8:1],1-3[8:1]/8-4[8:1],1-5[8:1]/8-6[8:1],1/8,
{8}4/8,3-8[8:1]/7-4[8:1],,3/7,,2-5[8:1]/6-1[8:1],,2/6,
{8},4/8,2b/6b,,3-6[8:1]/7-2[8:1],,3/7,,
{8}4/8,,5/6,4/7,,5/1V35[4:1]*q7[4:1],,,
{4},4/3-7[8:1],6-1[8:1],4-8[8:1],
{8}5h[4:1],,6,7,,4/8p2[4:1]*V64[4:1],,,
{4},5/7,4/2^7[8:1],5,
{4}8/6^3[8:1],1,4/2^7[8:1],5,
{4}8/6^3[8:1],1,4/2^7[8:1],6-1[8:1],
{4}2-5[8:1],7-4[8:1],3-8[8:1],5<4[4:1],
{4}4,,3-8[8:1]/7-4[8:1],3/7,
{8}1/5,,3/4,2/5,,8/4q2[4:1]*V68[4:1],,,
{4},4/3-7[8:1],6-1[8:1],4-8[8:1],
{8}5h[4:1],,6,7,,1/5V31[4:1]*p7[4:1],,,
{8},,2/4,,3/5,4,5,6,
{4}3^8[8:1]/7^4[8:1],3/7,2/6,4/8,
{4}2^5[8:1]/6^1[8:1],2/6,3/7,5/1>7[2:1],
{8}8h[8:7],,,,,,,3b-8[8:1],
{8},,5b-1[8:1],,,4b-8[8:1],,,
{8}6b,,3/8,5/6,,7/8,2/5,,
{8}7,5,4,2^7[8:1],,5-1[8:1],,3,
{8}3,,1/6,3/4,,1/2,4/7,,
{8}6,8,1,3,3,1,8,6,
{8}3-7[8:1],3,5w1[4:1],5,,,,6h[4:1],
{8},5,4,3/6,2/5,1/4,,3,
{8}6-2[8:1],6,4w8[4:1],4,,,,4/5,
{8},3/6,4/7,5/8,1-5[8:1]/6-2[8:1],1/6,,,
E

Re:MASTER




名前:
コメント:

タグ:

+ タグ編集
  • タグ:
最終更新:2022年06月18日 15:43