アットウィキロゴ

インフェルノ

BPM BASIC ADVANCED EXPERT MASTER Re:MASTER
185 4 7 9+ 11+ 13

EXPERT MASTER Re:MASTER
譜面制作者 華火職人 緑風犬三郎 隅田川星人

BASIC


ADVANCED


EXPERT

(185)
{4}18,34,18,56,1h[4:1]/8,2h[4:1],3h[4:1],4,
45,78,45,12,{8}3b/8b,3b/8b,,,1b/6b,1b/6b,,,
{4}3h[1:1],5,5,5,6h[1:1],4,4,4,4h[1:1],5,5,5,7-4[4:1],,,35,
6h[1:1],4,4,4,3h[1:1],5,5,5,6h[1:1],4,4,4,3,45,36,,
3h[4:1],1h[4:1],2h[4:1],4h[4:1],3,45,56,47,
{8}6,6,5,,3,3,{4}4,56,34,45,,
6h[4:1],8h[4:1],7h[4:1],5h[4:1],6,45,34,25,
{8}3,3,4,,6,6,5,,4,4,{4}5,3b/6b,,
{2}2h[1:1],B3/B4,5h[1:1],B3/B4,4h[1:1],B5/B6,7h[1:1],B5/B6,
{4}B8,B7,B6,B5,B4,B3,B2,B1,Ch[2:1],,,,E3/E7,,45,4q1[2:1]/5^8[2:1],,,,1x/2x,
{2}1x-5[8:1]/2x-5[8:1],7-4[8:1]/8-4[8:1],1-6[8:1]/2-6[8:1],7-3[8:1]/8-3[8:1],
1-5[8:1]/2-5[8:1],7-3[8:1]/8-3[8:1],{4}12,3,45,6,
{2}7x-4[8:1]/8x-4[8:1],1-5[8:1]/2-5[8:1],7-3[8:1]/8-3[8:1],1-6[8:1]/2-6[8:1],
7-4[8:1]/8-4[8:1],1-6[8:1]/2-6[8:1],{8}8b,8b,,,2b/6b,2b/6b,,,
{2}7x-4[8:1]/8x-4[8:1],1-5[8:1]/2-5[8:1],7-3[8:1]/8-3[8:1],1-6[8:1]/2-6[8:1],
7-4[8:1]/8-4[8:1],1-6[8:1]/2-6[8:1],{4}7,1^4[4:1]/8^5[4:1],,, 7h[2:1],5,2h[2:1],4,7h[2:1],6,2h[2:1],3,8h[2:1],5,1h[4:1],4,36,45,2b/7b,,
34,12,34,12,56,78,56,78,34,12,78,56,{8}47,47,,,25,25,,,
{0.25}1/8<1[2:7],{2}3h[1:1],,5h[1:1],,4h[2:1],5,{8}4b/5b,4b/5b,,,2b/7b,2b/7b,,,
{2}1x-5[8:1]/2x-4[8:1],7-5[8:1]/8-4[8:1],1-6[8:1]/2-5[8:1],7-4[8:1]/8-3[8:1],
1-5[8:1]/2-6[8:1],7-3[8:1]/8-4[8:1],{4}12,3,45,6,
7h[2:1],5,2h[2:1],4,7h[2:1],6,2h[2:1],3,8h[2:1],5,1h[4:1],4,25,47,1b/8b,,
34,12,34,12,56,78,56,78,
{1}1h[1:1],,,
E

MASTER

(185)
{4}3-6[8:1],8,7-2[8:1],4,3-8[8:1],5,6-1[8:1],2,
18,57,45,24,18,{16}4,5,{8}4,3x/6x,3x/6x,,,
{4}5,45,45,5,5/E4,5/E3,5/E2,5,35,35,25,1V73[4:3],5,5,5,5,
4,45,45,4,4/E6,4/E7,4/E8,4,48,48,45,45,4/8-5[8:3],4,4,3-5[8:1],
6h[4:1],2-4[8:1],8,3-5[8:1]/6,7,2-4[8:1]/8,8h[4:1],3-5[8:1],
6h[4:1],2-4[8:1],4,3-5[8:1],7,28,37,6-4[8:1],
3h[4:1],7-5[8:1],1,3/6-4[8:1],2,1/7-5[8:1],1h[4:1],6-4[8:1],
3h[4:1],7-5[8:1],5,6-4[8:1],4,45,3b/6b,7<2[4:3],
2,,1,2>7[4:3],7,,8,7<2[4:3],2,,1,1-5[4:1],8h[4:1],,4,2V46[2:1],
7,,8,7V53[2:1],2,,1,2V46[2:1],{2}7,8h[4:1],1b,,
{4}5h[8:1]/6h[8:1],4h[8:1]/7h[8:1],3h[8:1]/8h[8:1],1b-5[8:1]/2b-4[8:1],
1x/2x,7-5[8:1]/8-4[8:1],7x/8x,1h[4:1]/2-5[8:1],2x,7-4[8:1]/8h[4:1],7x,1-5[8:1]/2h[4:1],
1x,7h[4:1]/8-4[8:1],8x,1/2>1[4:1],8b,,46,7-5[8:1]/8-4[8:1],
7x/8x,1-5[8:1]/2-4[8:1],1x/2x,7^4[8:1]/8h[4:1],7x,1h[4:1]/2^5[8:1],2x,1-5[8:1]/7h[4:1],
1x,2h[4:1]/8-4[8:1],8x,17,{8}3b/8b,3b/8b,,,1b/6b,1b/6b,,45,36,,
{4}1^4[8:1]/8^5[8:1],1x/8x,1h[4:1]/2-6[8:1],2x,7-3[8:1]/8h[4:1],7x,1-5[8:1]/2h[4:1],
1x,7h[4:1]/8-4[8:1],8x,1/2>1[4:1],8b,,18,36,
57,12,24,78,57,12,24,78,7^4[8:1],3,2^7[8:1],5,5,6,47,2-6[8:1]/5,
7-3[8:1],4-1[8:1],8-5[8:1],3-7[8:1],6-2[8:1],1-4[8:1],5-8[8:1],3-6[8:1],
7-2[8:1],4^1[8:1],5^8[8:1],4,{8}2b/6b,2b/6b,,,4b/8b,4b/8b,,,
{1}B2/B3/B6/B7/Cf/E3/E7,,8h[4:7],4h[4:7],6h[4:7],2h[4:7],7h[4:3],
{8}4b/5b,4b/5b,,,1b/8b,1b/8b,{4}2-4[8:1]/7-5[8:1],2x/7x,
1^4[8:1]/8^5[8:1],1x/8x,7-4[8:1]/8,3x/7x,1/2-5[8:1],2x/6x,5/6-1[8:1],
2x/6x,3-8[8:1]/4,3x/7x,5/6<4[4:1],1b,,1h[4:1]/8h[4:1],,
24,78,57,12,24,78,57,12,3^8[8:1]/5,5,6^3[8:1],3,1,38,25,4/7-3[8:1],
2-6[8:1],5-8[8:1],1-4[8:1],6-1[8:1],2-5[8:1],7-2[8:1],3-6[8:1],5-8[8:1],
{1}1h[1:1],,,
E

Re:MASTER

(185)
{4}1/2-5[8:1],6,7-4[8:1]/8,3,{8}2,2,1,1,38,,45,,
{4}7-4[8:1]/8,3,1/2-5[8:1],6,{8}78,16,,,12,4b/8b,,,
{4}3h[2:1],4,5h[2:1],4,2h[2:1],3,4h[2:1],B2/E2,
{8}6,5,47,,3,4,{4}25,7-5[8:1],4-2[8:1],7,4x/5x,
6h[2:1],5,4h[2:1],5,7h[2:1],6,5h[2:1],B7/E8,
{8}3,4,25,,6,5,47,,2h[8:1],E3,,7h[8:1],E7,,4x/5x,,
{4}1-5[8:1]/2,4,7/8-4[8:1],5,1-5[8:1]/2,4,78,16,
{8}6,6,5,8,3,3,4,1,{4}4^7[8:1],1s5[8:1],8x,7x,
5p1[8:1]/6,8,3/4q8[8:1],1,5p1[8:1]/6,8,3/4q8[8:1],1,
{8}3,3,4,1,6,6,5,8,3-8[8:1]/7-4[8:1],37,,,1x/5x,,,,
{4}3/7pp4[1:1],,4x,3,3,,1x,,2qq5[1:1],,5x,6,6,,8hx[2:5],,
E5,E4,E3,E2,E1,E8,E7,E6,4V25[8:5]*pp5[8:5],,,,7h[1:1],,,,5w1[4:1],,,
{8}2V46[4:1],4,2b/7b,,8<4[4:1],5,28,,3v8[8:1],8,35,,
6^1[8:1],{24}2x,3x,4x,{8}5x,,3v8[8:1],8,35,,6^1[8:1],{24}2x,3x,4x,5x,,,
{8},2>8[4:1],1,8,,,,1,1,7V53[4:1],5,27,,1>5[4:1],4,17,,6v1[8:1],1,46,,
3^8[8:1],{24}7x,6x,5x,{8}4x,,6v1[8:1],1,46,,3^8[8:1],{24}7x,6x,5x,4x,,,
{8},6,1,48,26,,,15,37,2V46[4:1],,2b/7b,,8<4[4:1],5,28,,3v8[8:1],8,35,,
6^1[8:1],{24}2x,3x,4x,{8}5x,,3v8[8:1],8,35,,6^1[8:1],{24}2x,3x,4x,5x,,,
{8},3,5,{4}2^5[8:1]/6^1[8:1],26,B4/B8/Cf,,
3x/7x-4[8:1],8,2-5[8:1]/6,1,3/7-4[8:1],8,12,45,
3^8[8:1]/7,4,2/6^1[8:1],5,3^8[8:1]/7,4,37,15,
3x/6-1[8:1],2-5[8:1]/6x,2x/7-4[8:1],7x/8,
3-8[8:1]/6x,3x/7-4[8:1],2-5[8:1]/7x,1/2x,
8^5[8:1],8^3[8:1],8-4[8:1],8,{8}78,16,,,12,4b/8b,,,
{1}3hx[2:7],{24}E8,E7,E6,,,,{4},,,{24}E2,E3,E4,,,,{4},,,{24}E1,C,E5,,,,
{4},7hx[2:5],,{24}E8,E7,E6,,,,{4},4x,,{24}E1,C,E5,,,,{4},3x,,
{1}1s5[8:3],{8}48,26,,,15,37,6V82[4:1],,3b/6b,,
4>8[4:1],1,46,,7v4[8:1],4,17,,2^5[8:1],{24}6x,7x,8x,1x,,,
{8},7v4[8:1],4,17,,2^5[8:1],{24}6x,7x,8x,1x,,,
{8},7,1,{4}2^5[8:1]/6^1[8:1],26,B4/B8/Cf,,
3x-8[8:1]/7x,4,2/6-1[8:1],5,3-8[8:1]/7,4,56,18,
3/7^4[8:1],8,2^5[8:1]/6,1,3/7^4[8:1],8,37,15,
3x/6-1[8:1],2-5[8:1]/6x,2x/7-4[8:1],3-8[8:1]/6x,
3x/6-1[8:1],2-6[8:1]/6x,2x/7-3[8:1],3/7x,
{1}1h[1:1]/5h[1:1],,,
E



名前:
コメント:

タグ:

+ タグ編集
  • タグ:
最終更新:2021年11月18日 02:15