アットウィキロゴ

アスノヨゾラ哨戒班

アーティスト Orangestar feat.IA

BPM BASIC ADVANCED EXPERT MASTER Re:MASTER
185 4 7 9 12+ -

EXPERT MASTER Re:MASTER
譜面制作者 隅田川星人 はっぴー -

BASIC


ADVANCED


EXPERT


MASTER

(185)
{8}4,3h[4:1],,4,4,,2/6h[4:1],,5,,47,,3,3,4,2,7h[4:1],
,5,,5,5,6,7,2h[4:1],,4,,8,8,1q5[8:1],,5,
,6,6,5,,3h[4:1]/7,,4,,25,,3,3,4,2,7^4[8:1],
,1,1,2^5[8:1],,8,8,7h[4:1],,5,5,,,3,3,4,
2/6h[4:1],,5,4h[4:1]/7,6,5,3,25,6,3h[4:1]/7,6,5,4/5h[4:1],3,2,
1,1,8,8,7,6,5,4,{4}35,46,1>5[4:1],5<1[4:1],
1>5[4:1],5,{8}1,1,,37,{4}3-6[8:1]/7-2[8:1],,1x/5x,
7-5[8:1]/8-4[8:1],78,1-5[8:1]/2-4[8:1],12,
{8}37,37,2,1-5[8:1],8-4[8:1],1x,8x,,5,5<4[1:1],,
{1}1b,,8^5[2:1],{2}4^1[2:1],6,
{8}7h[8:1],E5,7h[8:1],E3,6h[8:1],B4,6h[8:1],B3,
7h[8:1],E5,7h[8:1],E2,5h[8:1],E3,5h[8:1],E1,
6h[8:1],E5,6h[8:1],E3,5h[8:1],E4,5h[8:1],E2,
6h[8:1],E5,6h[8:1],E1,5h[8:1],E4,5,5,
3,3,45,45,6,6,45,45,45,36,27,1b,
8V64[8:1],4>5[2:1],8,Cf,{2},
{8}1-5[8:1],,7,7^2[8:1],,4,4w8[8:1],,4x,,,8,
1,24,5,{4}4/6-2[8:1],3-8[8:1]/6,3/7pp4[4:1],
{8}2,2,,,,2b/6b,4b/8b,,,,
3,3-8[8:1],,7,7-4[8:1],,3,3h[4:1],,5,6,78,1,24,
{4}5-8[8:1],4-1[8:1],5p4[8:3],1b,{8},,,
1V35[8:1],5<4[2:1],1,Cf,{2},
{8}8-4[8:1],,2,2^7[8:1],,5,5^2[8:1]*^8[8:1],,5x,,,1,
8,57,4,{4}3-7[8:1]/5,3/6-1[8:1],2qq5[4:1]/6,{8}7,7,,6,
{4}6-2[8:1],1-5[8:1]/6,1,{8}7,7-3[8:1],,1,1-5[8:1],,8,8h[4:1],,
1,8,57,4,6,3,24,1,1,{4}5-8[8:1],5-2[8:1],5x,{8}8,8,4,5,2b/7b,,
6,5,7,1^4[8:1],1^6[8:1],,,,3,4,2,8^5[8:1],8^3[8:1],,,,
6,5,7,1^4[8:1],1^6[8:1],,,,3,4,2,6,7,18,36,,
2,4,3,5-8[8:1],5-2[8:1],,,,8,5,6,4-1[8:1],4-7[8:1],,,,
1,4,3,5-8[8:1],5-2[8:1],,,,6,4,7,2-6[8:1],8-4[8:1],2,8,
,,,,,,,{1}3h[1:1],4h[1:1],{8}5h[8:5],,,,,,,46,,
{4}3h[8:1],3h[8:1]/4,{8}2,2,{4}4h[8:1],6h[8:1],5/6h[8:1],{8}7,7,{4}5h[8:1],
3h[8:1],3h[8:1]/4,{8}2,2,{4}4h[8:1],8h[8:1],5/7h[8:1],{8}2,2,{4}3h[8:1]/5,
6h[8:1],5/6h[8:1],{8}7,7,{4}5h[8:1],3h[8:1],3h[8:1]/4,{8}2,2,{4}4h[8:1],
6h[8:1],5/6h[8:1],{8}7,7,{4}5h[8:1],1h[8:1],2h[8:1]/4,{8}3,4,35,
{4}3-6[8:1],7,{8}8,8,1,1,6-4[8:1],,2,2q6[8:1],,7,7,,8,
8^5[8:1],,4,4^1[8:1],,8^5[8:1],,4,4h[4:1],,5,
{4}36,1^4[8:1]/8^5[8:1],1x/8x,,{8}3,4,5,6,6-3[8:1],,2,2,1,1,8h[4:1],,
5-8[8:1],,6,7,7,3,3,5,1-4[8:1],,8,8^5[8:1],3,2,2,5,46,,
{16}3,4,2,,6,5,{8}7,1,1,8h[4:1],,5,5qq5[4:1],,7,,,6,
6,5,7,{4}1h[4:1],3-6[8:1],,{8}2,3,4,7,6,5,48,,
{16}6,5,7,,3,4,{8}2,8,8,1h[4:1],,4,4pp4[4:1],,2,,,
3,3,4,2,{4}8h[4:1],6-3[8:1],,{8}7,6,{4}5,8<5[8:7],,,,,,,,,
{8}B8,B1,,C,,E6,B5,B4,{4}E4,B6/B7,B2/B3,E1,
{8}B2/B7/Ch[2:1],,,,,,,B3/B6/Ch[2:1],,,,,,,8,8,1,
{4}1h[1:1],5,{8}4,5,6,,8-4[8:1],1-5[8:1],8x,1x,,{4}7pp4[2:1],4h[4:1],,
{8}1,1,,6,6,45,45,36,27,1pp1[4:1],8,1<2[4:1],7,
{4}7,,,{8}8qq3[8:3],8,{4}4h[8:3],,{8},3qq6[8:3],8,{4}8h[8:3],,,
{8}7-3[8:1],7,1,1,,2-5[8:1]/4-8[8:1],,2x/4x,,,
2-5[8:1],,12,8,7,56,4,35,2v5[8:1],,12,8,7,46,3,24,
1b-5[8:1],,18,7,6,45,3,24,1b-5[8:1],,17,8,1,24,4/5<4[8:3],4,3,
{4},,,{8}3pp8[8:3],3,{4}7h[2:1],,,{8}6pp4[8:3],6,{4}1h[2:1],,,
{8}25,36,{4}47,5-2[8:1]/6-1[8:1],5x/6x,{8},
7-4[8:1],,78,1,2,34,5,46,7v4[8:1],,78,1,2,35,6,57,
8b-4[8:1],,28,1,8,57,4,3,{4}1b-5[8:1]/2b-6[8:1],1x/2x,{8}78,6,
{4}1-4[8:1]/5-8[8:1],1x/5x,3b/7b,
{1},,,,,,,,
E

Re:MASTER


名前:
コメント:

タグ:

+ タグ編集
  • タグ:
最終更新:2026年04月08日 19:47