アットウィキロゴ

CO5M1C R4ILR0AD

アーティスト kanone

BPM BASIC ADVANCED EXPERT MASTER Re:MASTER
155 4 8 11+ 14 -

EXPERT MASTER Re:MASTER
譜面制作者 サファ太 シチミヘルツ -

BASIC


ADVANCED


EXPERT


MASTER

(155)
{4}Ch[4:6],,,,,,,{24}E7,B6,B5,E3,B3,B4,
{16}B7/E8,,,E2/B2,,,E6,B5,B4,E4,,B2/B7,,,,,{4}1bs5[8:3],,,
{16},,B2/E3,,B7/E7,,,B4/B5/E5,,,{24}E2,B2,B3,{16}E8,E1,E6,E5,,,,,
6,5,,56,,4/7h[16:3],,,5,6,,3,4,,,,
{8}2-5[8:1],2,7-3[8:1],7,4-1[8:1],4,8x,,7-4[8:1],7,2-6[8:1],2,5-8[8:1],5,1x,,
{16}1,8,1,8,1,8,1,8,{32}1,2,3,4,5,6,7,8,1,2,3,4,5,6,7,8,{4}1b/5,2b/8,{16}3b/6,,1,8,2b/7b,,,,

{8}3-7[8:1],8,4,5,{16}6,8,6,1,6,,37,,{8}8-4[8:1],4-7[8:1],3x,3x,{16}2,1,8,7,6b,,,,
{16}25,3,4,,47,6,5,47,,18,,3,4,,25,,{8}3-6[8:1],8-3[8:1],3^8[8:1],8^5[8:1],4,,1b,,
{16}26,,3,3,5,5,4,4,{24}6,5,6,{16}5,7,4,6,3,5,2h[8:1],,6,5,7h[8:1],,3,4,{2}1-5[8:1]*-6[8:1],
{8}7^2[8:1],7,5^2[8:1],5,1-5[8:1],1,8x,,
7h[8:1],6h[8:1],5h[8:1],4h[8:1],3h[8:1],2h[8:1],{2}1s5[8:1],
{16}46,,8,,3,4,2,5,3,,26,,1-5[8:1],,5-2[8:1],,6x,,6x,,7,8,1,2,3b,,,,
47,6,5,,25,3,4,25,,18,,6,5,,47,,{8}6-3[8:1],1-6[8:1],6,1,4,2,{24}5,4,6,5b,,,
{16}37,,6,6,4,4,5,5,{24}3,4,3,{16}4,2,5,3,6,4,7h[8:1],,3,4,2h[8:1],,6,5,{2}8-4[8:1]*-3[8:1],
{4}25,47,{16}1,8,1,8,{8}C,E5,36,8,3/6p5[16:3],1,36,,1b,,17,,
{16}2,1,2,3,2h[8:1],,4,3h[8:1],,6,5,,28,,,,7,8,7,6,7h[8:1],,5,6h[8:1],,3,4,,17,,,,
2,1,2,3,2h[8:1],,4,3h[8:1],,6,5,,28,,2,1,3,8,4,7,3,5,1,7,
8-5[16:1],8,8,8,8,,,,2-6[16:1],2,2,2,2,,,,7-3[16:1],7,7,7,7,,1,,1,7,2,8,,12,,34,,56,,78,
{24}2,3,4,7,6,5,1,2,3,8,7,6,{12}1,1,1,26,37,4h[96:23]/8h[96:23],
{32},,,,,,3-6[16:1]/7-2[16:1],26,{16}15,,,37,,,48,,{8},,

{1}1b>8[4:6]/5,,8<2[4:5],{4},,1-5[8:1],,
{8}6h[2:1],5,4,3,3h[2:1],4,5,6,6h[2:1],4,5,4,3h[2:1],5,4,5,
6h[8:3],5,4,3h[4:1],4,6h[8:1],5,47,,15,,18,2-5[8:1]/7-4[8:1],36,,,
{4}3/6h[4:1],2h[4:1],7h[4:1],1h[8:1],5h[4:1]/1,7h[4:1],3h[4:1],1h[8:1],
1/8h[4:1],6h[4:1],4h[4:1],2h[8:1],8h[4:1]/2,4h[4:1],{8}5,E3,C,E7,
18,1,12,2,23,3,34,4,45,5,56,6,67,7,78,8,
{4}2h[16:1]/7h[16:1],4h[16:1]/5h[16:1],{16}1,8,2,7,4,5,3,6,{8}1b,,2b/5,,3b/8w4[8:1],2x,8b,,

{16}1,1,4,2-7[16:1],8,5,7,2,,,5,,1,8,2,1h[8:1],,6,7,4,5,2,3,1,7,8,6,2,5,4,36,,
8,8,5,7-2[16:1],1,4,2,7,,,4,,6,5,8,1-5[16:1],4,3,7,1,,,7,8,5,4,1,2,{24}7x,6x,5x,1x,2x,3x,
{16}8,8,5,7-2[16:1],1,4,2,7,,,4,,8,2,7,8h[8:1],,3,2,5,4,7,6,8,2,1,3,7,4>5[16:6],5pp4[16:5],36,,{2},
{16}2x/6x,,,,2,4,3,4,25,,6,5,47,,3,4,{12}5/1-4[8:1]*-6[8:1],1,1,1b,,,
{16}7,7,5,6-1[16:1],2,4,3,6,,,4,,7,8,6,5h[8:1],,2,3,8,1,6,7,5,3,4,2,5,1,8,27,,
1,1,4,3-8[16:1],8,5,7,3,,,5,,3,4,1,8-4[16:1],5,6,2,8,,,2,1,4,5,8,7,{24}2x,3x,4x,8x,7x,6x,
{16}1,1,4,3-8[16:1],8,5,7,3,,,5,,2,1,3,4h[8:1],,7,6,1,8,3,2,4,5,8,7,2,5<4[16:6],4qq5[16:5],36,,{2},
{12}3x/7x,,,48,37,26,{24}15,,,2,3,4,58,,,7,6,5,{12}4/1v4[8:1]*v6[8:1],1,1,1b,,,

{16}
2v5[16:1],1,3,1,2,7,8,1,3,4,1,6,2-6[8:1],8,4,6,2^7[8:1],,8,8,2^5[8:1],,4,4,2,,1,1,{24}3,4,3,{16}5,2,
7v4[16:1],8,6,8,7,2,1,8,6,5,7,2,4,3,,48,,7,8,,56,,34,,2,1,3,8,4b/7b,,2b/5b,,
6v1[16:1],5,7,5,6,3,4,5,8,1,6,4,7-3[8:1],1,5,3,7^2[8:1],,1,1,7^4[8:1],,5,5,7,,8,8,{24}6,5,6,{16}4,7,
2h[8:1],,4,3h[8:1],,7,5,,78,,16,,7,4,5,1b,,,
{8}17,38,26,{12}48,37,26,{32}1,8,7,6,5,4,3,2,{4}1-5[16:1]/5,1b/8b,

{16}
7,5,6,4,8-4[8:1],2,7,1,8^3[8:1],,2,2,8^5[8:1],,6,6,8,,1,1,{24}6,5,6,{16}4,7,
3v8[16:1],4,2,4,3,6,5,4,2,1,3,7,5,6,,15,,2,1,,34,,56,,7,8,6,1,{8}2b/5bz1[8:3],4b/7b,{2}3h[8:3],
{16}4h[8:1]/7h[8:1],,,2h[8:1]/5h[8:1],,,18,,45,,3,24,,6,57,,18,,4,5,27,,,,{8}1/5h[8:3],,,
{24}2,3,4,{16}5/8b,,45,,26,,15,1h[16:9]/5,,,{8}6b,4b,2b,{24}3b-7[16:1],4,5,6,7,8,{1}1>1[4:6]*<1[4:6]/3b,{4},,,,,
{1}2-7[2:1]/6-3[2:1],{16}45,,3,4,2,,7,8,,2,1w5[16:1],,{1}37,,,,E

Re:MASTER


  • SLIDEの速度、HOLD終点の修正を行いました。 -- けもがみ (2026-03-08 16:50:06)
名前:
コメント:

タグ:

+ タグ編集
  • タグ:
最終更新:2026年04月05日 21:58