アットウィキロゴ

Re:End of a Dream

アーティスト uma vs. モリモリあつし

BPM BASIC ADVANCED EXPERT MASTER Re:MASTER
212 6 8 12 14 -

EXPERT MASTER Re:MASTER
譜面制作者 サファ太 ぴちネコ -

BASIC


ADVANCED


EXPERT

(212){1},,,,
5h[8:7]/4h[8:9],,6h[8:7]/3h[8:9],{4},,54,,
3-5[4:1],,6,,6-4[4:1],,3,,3-5[4:1],,6,,7,6,5,4,
3,3,42,5,6,6,75,4,3,3,12,8w4[2:1],,,,,
{8}5x/3x,,6b/2b,62,,8,8,,7h[4:1],,5,4,,53,53,,
2h[4:1],,4,5,,64,64,,78,,65,,43,,52,,
6h[4:1],,8,1,,82,82,,3h[4:1],,1,8,,71,71,,
65,,78,,12,,43,,5,4,5,,7b/3b,,,,

{1}1pp6[4:5],,5pp2[4:5],,1>8[4:7],,Ch[2:1],
{4}81,7b/2b,6b/5b,4b/3b,
{8}54,,7x/5x,,81,,2,2,1,,83,,43,,6,6,
5,,74,,43,,5/2q6[8:3],,
,,,,7,,7b/1b,,
6,,65,65,,3,42,,1,1,,82,,73,73,,
5x/4x,,8x,8x,1x,1x,,7x/2x,,3x,3x,4x,5b/2b,,,,

6hx[4:1]/5hx[4:1],,,6hx[8:9]/5,,,,,,,,5,5,,65,,
6hx[4:1]/5hx[4:1],,,6/5hx[1:1],,,,,Ch[8:3],,,,,,,,
2hx[4:1]/1hx[4:1],,,2hx[8:9]/1,,,,,,,,1,1,,21,,
2hx[4:1]/1hx[4:1],,,2/1hx[1:1],,,,,Ch[8:3],,,,,,,,
2,,34,34,,4,,5,,54,,6,6h[4:1],,5,,7,,65,65,,5,,4,,54,,3,3h[4:1],,4,,
5x/4x,,,7,7x/5x,,,2,4x/2x,,,6,6x/5x,,,3,
{6}3x,4x/3x,4x/3x,6x/5x,6x/5x,5x/6x<3[4:1],
{4},,6x/2x,,

{8}43,,54,,65,,7,7,,1,1,2,3,,7b/3b,,
6-1[8:1],,2-5[8:1],,7-4[8:1],,3>6[4:1],,
5,,,,8x,8x,,3,
{16}2h[16:3],,,1,,,3,,{8}3,4,52,,
{16}7h[16:3],,,8,,,6,,{8}6,5,74,,
5hx[4:1]/2hx[4:1],,,,7hx[4:1]/4hx[4:1],,,,
{12}6x,5x,6x,5x,6x,5x,{4}6x,8b/4b,
{16}7h[16:3],,,8,,,61,,{8}6-3[8:1]/1,,3x,,
{16}2h[16:3],,,1,,,38,,{8}3-6[8:1]/8,,6x,,
{16}7h[16:3],,,8,,,61,,{8}6-1[8:1]/1,,3x,,
2,2,4,4,5,5,65,,
7x/3x,7x/3x,,6x/4x,,4x/3x,,5x/4x,,4x/2x,,8x/1x,8x/1x,,5x/2x,,
{16}7h[16:3],,,6h[16:3],,,5,,2h[16:3],,,3h[16:3],,,4,,
5h[16:3],,,6h[16:3],,,7,,{4}8b/4b,,

1>6[1:1],,,,,,,7x,7x<2[1:1],,,,,,81,72,
3,42,6,57,3,12,6,78,
{6}2h[6:1],3h[6:1],4h[6:1],5h[6:1],6h[6:1],7h[6:1],{1}8z4[4:3],

8b,,
{4},,,6b/3b,
{8}78,78,61,61,52,5b/2b,,7,
{16}7h[16:3],,,8,,,65,,{8}65,74,83,,
{16}2h[16:3],,,1,,,43,,{8}43,52,61,,
8hx[4:1]/3hx[4:1],,,,6hx[4:1]/1hx[4:1],,,,
{12}7x,8x,7x,8x,7x,8x,{4}7x,5b/1b,
{16}2h[16:3],,,1,,,83,,{4}7/4-8[8:1],5b,
{16}7h[16:3],,,8,,,61,,{4}2/5-1[8:1],4b,
{8}3,4,5b/2b,,6,5,7b/4b,,7,8,6b/1b,,2,1,8b/3b,,
1x,1x-5[8:1],,7x-4[8:1],,2x,,5x/3x,
,6x,6x,5x,7x-3[8:1],,1x>7[2:3],,
{4}8b,,,,,,,8x,8x-4[1:1],,,,,,,6b/3b,
{16}2hx[16:3],,,3h[16:3],,,4,,7h[16:3],,,6h[16:3],,,5,,
4h[16:3],,,3h[16:3],,,2,,{8}5b/1b,,,,

72,,6,6-4[8:1],,3,3,,52,,1,1,,6,6,,
53,,2,2-5[8:1],,6,6,,74,,8,8,,3,3,,
61,,3,4-8[8:1]/2,,1,1,,83,,6,7/4-1[8:1],,8,8,,
42,,54,,75,,81,,
{6}7h[6:1],6h[6:1],5,2h[6:1],3h[6:1],4,
{8}65,,7b/2b,,12,83,74,,
{16}5h[16:3]/3,,,6h[16:3],,,7,,{8}78,61,52,,
{16}6/4h[16:3],,,3h[16:3],,,2,,{8}12,83,7-4[8:1]/4,,
3-8[8:1],,6-1[8:1],,2-5[8:1],,7<2[2:1],,
{4}4b,,,7x/2x,
{12}8x,8x,8x,1x,1x,1x,{8}8x,,7b/1b,,
6,5,74,74,3,4,52,52,1,1,82,82,7b-4[8:1]/3b-8[8:1],,,,
{1}5b/1b,,,,6h[8:9]/3h[8:7],,5h[8:9]/4h[8:7],
E

MASTER

(212)
{8}3,4,3,4,3,3h[4:1],4,4-8[8:1],{1},
{8}6,5,6,5,6,6h[4:1],5,5-1[8:1],{1},
{8}2,3,2,3,2,2h[4:1],3,3-7[8:1],{1},
{8}7,6,7,6,7,7h[4:1],6,6-2[8:1],{2},Ch[4:1],
{8}1b/8b,,3,3h[8:3],,8,8,,12,3,4,5/6h[8:3],,8,8,,
18,,6,6h[8:3],,1,1,,{16}5,4,5,,{8}34,3h[8:3]/4,,1,1,,
{4}45,35,46,24,57,25,48,15,{8}3x/6x,36,27,27,{16}8x,1,8,1,7,2,7,2,
{6}8x/E3,7x/E4,6x/E5,1x/E7,2x/E6,3x/E5,{4}8w4[8:1],{32}8b,B8,Cf,B4,{4},

{16}1,,2,,3,,47,,6,5,6,,4/7h[8:3],,,,8,,8,,,,
38,,2,1,2,,3h[8:3]/8,,,,4,,4,,,,
7,1,7,1,8,,8-4[8:1],,,,,,{24}1x,2,3,5x,6,7,{16}1x/8x,,,,
34,,2h[8:3]/5,,,,1,,1,,,,16,,7,8,7,,6h[8:3]/1,,,,5,,5,,,,
2,1,2,1,4,5,4,5,8,7,8,7,{32}E1,E2,E3,E4,E5,E6,E7,E8,{2}Ch[2:1],1b,

{8}3h[8:6]/4h[4:1],,,4h[8:3],,,,,5h[8:6]/4h[4:1],,,4h[8:3],,,,,5h[8:6]/6h[4:1],,,6h[8:3],,,,,
{4}3/6q3[2:1],,5,4,{8}3h[4:1]/5,,4,34,,3,4,5,6h[4:1]/4,,5,56,,5,4,3,2h[8:3],,,
{16}7,1,7h[8:3],,,,,,2,8,{4}2-6[8:1],1-5[8:1]/2x,1x/8-4[8:1],7-3[8:1]/8x,7x/1w5[8:1],1b,
{16},,37,,6,5,6,5,7h[8:1],,5,6h[8:1],,4,5h[8:1],,3,4h[8:1],,2,3,,3,,
2h[8:1],,4,3h[8:1],,5,4h[8:1],,6,5h[8:1],,7,6,,6,,{4}6x-3[8:1]/7x-2[8:1],,14,85,
{8}3h[32:11]/7h[32:11],,,{32}2x/6x,1x/5x,8x/4x,,,,,,
{8}4,5,6,26,2h[32:7]/6h[32:7],,{32}3x/7x,4x/8x,5x/1x,,,,,,{8}5,4,3,2b/6b,,
{16}8b,8b,8b,8b,8b,,{8}8b-4[8:1],,8b,,2b/6b,3b/7b,4b/8b,
1b-6[8:1]/5b-2[8:1],,1x>8[4:5]/5x,,{2}5h[4:5],,,

E4/B4/B5/E6,{8}36,,2,4h[4:1],,3h[2:1],,,2,{2}2-7[8:1],
{8},,,7<2[1:1],,4,{1}4h[8:7],{8},E4/B4/B5/E6,,,,36,,7,5h[4:1],6,6h[8:4],,,7,{2}7-2[8:1],
{32},,,,E8,B7,B6,E6,E2,B2,B3,E4,{8}4x/8x,,36,3x/6x,,
{16}45,,3,3,4,,{8}3h[8:3],5,5,6h[8:3],4,4,3,6,4x/5x,,27,2x/7x,,
{16}45,,6,6,5,,5h[8:1]/7h[8:1],,,4h[8:1]/5h[8:1],,,2h[8:1]/4h[8:1],,,,{8}36,36,,
{16}4h[4:1]/7h[4:1],,,,,,3,4,2h[4:1]/5h[4:1],,,,,,
7,8,6h[4:1]/1h[4:1],,,,,,2,1,3h[4:1]/8h[4:1],,,,,,
8,1,{6}27,34,56,{12}6,6,7,7,8,8,1,1,2,2,3,3,{2}B2/Cf/B7,

{16}3h[16:3],,,4h[16:3],,,3,,5,4,5,4,5,,27,,,,78,,12,,34,,5w1[8:1]/6,,,,,,,,
7h[16:3],,,8h[16:3],,,7,,1,8,1,8,1,,6h[8:1],,8h[8:1],,1h[8:1],,3h[4:1],,{32}1,8,7,6,5,,,,{8}1b,,,
{16}3hx[16:3]/4x,,,5h[16:3],,,4,,6,4,6,4,7,5,7,,5x/6hx[16:3],,,4h[16:3],,,5,,3,5,3,5,2,4,2,,
{6}1hx[3:1]/5x,6,7,8hx[3:1]/1x,2,3,{12}4x,7x,8x,5x,2x,1x,{2}2x-5[8:1]/7x-4[8:1],

{16}8/1-5[8:1],,2,,3,,4,,6,5,6,5,6,,,,1/8-4[8:1],,7,,6,,5,,3,4,3,4,3,,,,
8/1-5[8:1],,2,,3,,4,,6,5,6,5,6,,,,1,8,1,8,{8}2h[8:1],1h[8:1],8h[8:1],7h[8:1],C,,12,
{4}7-3[8:1]/8,2-6[8:1]/7x,8-4[8:1]/2x,1x/8x,{16}6,5,8,,3,4,1-5[8:1],,,,1x,,,,
6b/Cf,,,2b/Cf,,,4x/8x,,6b/Cf,,,2b/Cf,,,4x/8x,,6b/Cf,,,2b/Cf,,,4x/8x,,{2}4x-1[8:1]/8x-5[8:1],

{1}3bpp2[4:3]/7bpp6[4:3],{4},,45,B7/E8,E2/B2,
{48}6,,,,,{12}5,{96}6,,,,,,,{16}5,6,{96}5,,,,,{16}6,5,6,,,
{24}3,{16}4,{24}3,4,{96}3,,,,,4,,,,,{16}3,{96}4,,,,,,,3,,,,,,,
{8}25,25,47,47,1h[8:1]/8h[8:1],,2h[8:1]/7,7,3h[8:1]/6,6,4h[8:1]/5,5,
4h[8:1]/5h[8:1],,6h[8:1]/3,3,7h[8:1]/2,2,8h[8:1]/1,1,
{6}3h[12:1]/8h[12:1],2h[12:1]/7h[12:1],1h[12:1]/6h[12:1],
5h[12:1]/8h[12:1],3h[12:1]/6h[12:1],1h[12:1]/4h[12:1],{1}2x<5[2:1]/7x>4[2:1],
{16}3h[16:3],,,4h[16:3],,,2h[16:6],,E4,,E5,,E6,,,,6h[16:3],,,5h[16:3],,,7h[16:6],,E6,,E5,,E4,,,,
3h[16:3],,,4h[16:3],,,2h[16:6],,E4,,E5,,E6,,,,{8}3x/5x,7x/1x,4x/6x,2x/8x,4x/5x,E3/Cf/E7,,,

{16}4x/7x,,6,5,,5,6,,4,6,3,5,2,4,1,,2x/5x,,3,4,,4,3,,5,3,6,4,7,5,8,,
{6}4x/8hx[3:1],3,2,1hx[3:1]/8x,7,6,{12}5x,2x,1x,4x,7x,8x,{2}2x-5[8:1]/7x-4[8:1],
{16}1/8-4[8:1],,7,,6,,5,,3,4,3,4,25,,,,8/1-5[8:1],,2,,3,,4,,6,5,6,5,47,,,,
{8}2,2h[8:3],{24}E2,B2,B3,E4,,,{8}7,7h[8:3],{24}E8,B7,B6,E6,,,
{32}1,,,,1h[8:3],,,,E8,E7,E6,E5,E4,,,,8,,,,8h[8:3],,,,E2,E3,E4,E5,E6,,,,
{8}1x,1x,,3x-8[8:1]/7x-4[8:1],,3x-6[8:1]/7x-2[8:1],,3x/7x,,8x/4x,7x/3x,6x/2x,5x/1x,,4b/5b,,
B2/B7,B3/B6,,E3/B8,,B1/E7,,B4/B5,,E4/E8,E3/E7,E2/E6,E1/Ch[4:1],,
1b>8[4:6],,{2}1x,2h[64:1],4h[64:1],{16}6h[64:1],,,,8b/1b,,,,
3b/Cf,,,7b/Cf,,,1x/5x,,3b/Cf,,,7b/Cf,,,1x/5x,,3b/Cf,,,7b/Cf,,,1x/5x,,{2}1x-4[8:1]/5x-8[8:1],

{4}1w5[8:1],{32}1b,B1,Cf,B5,{4},
{16}8,,7,,6,,52,,3,4,3,,2h[8:3]/5,,,,1,,8,,7,,
16,,7,8,7,,1/6h[8:3],,,,5,,4,,3,,
2,8,2,8,1,,1-5[8:1],,,,,,{24}8x,7,6,4x,3,2,{16}1x/8x,,,,
56,,4/7h[8:3],,,,8,,1,,2,,38,,2,1,2,,3h[8:3]/8,,,,4,,5,,6,,27,,8,1,8,,2/7h[8:3],,,,6,,5,,4,,
{6}1h[12:1]/4h[12:1],3h[12:1]/6h[12:1],5h[12:1]/8h[12:1],
3h[12:1]/7h[12:1],2h[12:1]/6h[12:1],1h[12:1]/5h[12:1],{4}8-3[8:1]/4-7[8:1],4b/8b,

{16}2,8,2,8,1,7,1,7,8,1,2,3,8,7,6,5,{12}3x,3,3,6x,6,6,
{16}5x/7x,,6,5,6,5,6,,2x/4x,,3,4,3,4,3,,4x/5x,,5,4,6,3,7,2,
{12}1x/8x,2x/7x,3x/6x,4x/5x,3x/6x,2x/7x,{2}1x/8x,1w5[12:1],
{12}3b,3,3,1b,1,1,7b,7,7,5b,5,5,
{8}1x/4xv1[8:1],1x/4x,{24}E2,B2,B3,E4,,,{8}5xv8[8:1]/8x,5x/8x,{24}E8,B7,B6,E6,,,
{4}1hx[2:1]/4bpp8[32:9],,,{16}1x,1,1,1,1x,,,,

{8}3h[8:1],4h[8:1],3h[8:1],2h[8:1],1h[8:1],8-4[8:1],{4},,,
{16},,4,5,{8}6h[8:1],5h[8:1],6h[8:1],5h[8:1],6h[8:1],7h[8:1],8h[8:1],1-5[8:1],,,,B8,B7,,B5,,
3h[8:1],4h[8:1],3h[8:1],4h[8:1],3h[8:1],2h[8:1],1h[8:1],8-4[8:1],{4},,,
{16},,4,5,{8}6h[8:1],5h[8:1],6h[8:1],5h[8:1],6h[8:1],7h[8:1],8h[8:1],{1}1w5[8:1],,,,E

Re:MASTER


  • MASTER譜面のノーツの配置ミス、加減速トリル、SLIDEの速度の修正を行いました。 -- けもがみ (2026-03-04 12:44:23)
名前:
コメント:

タグ:

+ タグ編集
  • タグ:
最終更新:2026年04月05日 21:43