アットウィキロゴ

Bad Apple!! feat.nomico (REDALiCE Remix)

アーティスト Masayoshi Minoshima × REDALiCE

BPM BASIC ADVANCED EXPERT MASTER Re:MASTER
170 3 7 10 12+ -

EXPERT MASTER Re:MASTER
譜面制作者 シチミヘルツ 某S氏 -

BASIC

(170.0){1},,,,,,,,,
{1}3,
{1}3,
{1}4,
{1}4,
{1}5,
{1}5,
{1}6,
{1}5/6,
{2}5,5,
{1}5,
{2}6,6,
{1}6,
{2}7,7,
{1}7,
{2}8,8,
{1}8,
{2}1,1,
{1}1,
{2}2,2,
{1}2,
{2}3,3,
{1}3,
{2}4,4,
{1}5b,
{2}3,3,
{1}3/4,
{2}2,2,
{1}1/2,
{2}8,8,
{1}1/8,
{2}7,7,
{1}7b,
{2}6,6,
{1}5/6,
{2}7,7,
{1}7/8,
{2}1,1,
{1}1/8,
{2}2,2,
{1}2b,
{1}2-5[4:3],,
{1}7-4[4:3],,
{1}4h[1:1],,
{1}5h[1:1],,
{1}E6,
{1}E5,
{1}E4,
{1}E5,
{1}E4/E6,
{1}B3/B6,
{1}Chf[1:1],,
{4}1,1,1,,
{4}2,2,2,,
{4}3,3,3,,
{1}4/5,
{4}5,5,5,,
{4}6,6,6,,
{4}7,7,7,,
{1}1/8,
{4}8,8,8,,
{4}7,7,7,,
{4}6,6,6,,
{1}4/5,
{4}3,3,3,,
{4}4/5,4/5,4/5,,
{4}6,6,6,,
{1}5b,
{1}E5,
{1}E4,
{1}E3,
{1}E2,
{1}E1,
{1}E8,
{1}E7,
{1}E6,
{4}4,4,4,,
{1}5h[2:1],
{4}6,6,6,,
{4}7,7,7/8,,
{4}1,1,1,,
{1}2h[2:1],
{4}3,3,3,,
{4}4,4,4/5,,
{1}C1f,
E

ADVANCED

(170.0){1},
{1}8<2[4:13],,,,
{1}1>6[4:13],,,,
{1}8^5[1:1],
{4},,4x,4x,
{1}4^1[1:1],
{4},,8x,8x,
{1}8-5[1:1],
{4},,4x,4x,
{2}4b/5b,2x/7x,
{4}1x/8x,1x/8x,2b/7b,,
{4}6h[4:3],,,5,
{4}4h[4:3],,,5,
{4}6h[4:3],,,5,
{4}4,4,4x/5x,,
{4}3h[4:3],,,4,
{4}5h[4:3],,,4,
{4}3h[4:3],,,4,
{4}5,6,5b/7b,,
{4}6h[2:1],,5,4,
{4}3h[2:1],,4,5,
{4}6h[2:1],,5,4,
{4}3,3,3x/4x,,
{4}3h[2:1],,4,5,
{4}6h[2:1],,5,4,
{4}3,3,3/4,,
{4}2,1,2b/7b,,
{4}1,1,2,2,
{4}3,3,3x/4x,,
{4}6,6,5,5,
{1}4^1[2:1],
{4}8x,8x,7,7,
{4}6,6,5x/7x,,
{4}3,3,2,2,
{4}1,1,2x/7x,,
{4}8,8,7,7,
{4}6,6,5x/6x,,
{4}3,3,4,4,
{1}5^8[2:1],
{4}1x,1x,2,2,
{4}3,3,2x/4x,,
{4}6,6,7,7,
{4}8,8,2b/7b,,
{2}B7,B5,
{1}B3,
{2}B2,B4,
{1}B6,
{2}B7,C1,
{2}B3,B2,
{2}C1,B6,
{1}C1,
{2}B7,B5,
{1}B3/B4,
{2}B2,B4,
{1}B5/B6,
{2}B7,C1,
{2}B3,E5,
{2}B4/B5,B3/B6,
{1}C1f,
{4}7,7/8,2,1/2,
{4}7,7/8,1x/6x,,
{4}6h[4:1],5,3h[4:1],4,
{1}4-1[2:1]/5-8[2:1],
{4}2,1/2,7,7/8,
{4}2,1/2,3x/8x,,
{4}3h[4:1],4,6h[4:1],5,
{4}7,7x/8x,1x/6x,,
{4}7,7/8,2,1/2,
{4}3,3/4,2x/5x,,
{4}6h[4:1],5,3h[4:1],4,
{1}4^1[2:1]/5^8[2:1],
{4}2,1/2,7,7/8,
{4}6,5/6,4x/7x,,
{4}3h[4:1],4,6h[4:1],5,
{4}7,1x/8x,2b/7b,,
{4}1,2,3,4,
{4}5,6,7x/8x,,
{4}6,5,4,3,
{4}2,1,2x/7x,,
{4}8,7,6,5,
{4}4,3,1x/2x,,
{4}3,4,5,6,
{4}7,8,2b/7b,,
{8}8x,8x,8x,,7,,6,,
{4}5,4,3x/5x,,
{8}4x,4x,4x,,5,,6,,
{4}7,8,2x/7x,,
{8}8x,8x,8x,,7,,6,,
{4}5,4,4x/5x,,
{2}E5,B4/B5,
{1}B3/B6/Chf[1:1],,
E

EXPERT

(170.0){2}2/7,1-4[8:1]/8-5[8:1],
{1}7<2[4:13],,
{1}E5,
{1}C1,
{1}1>7[4:13],,
{1}E5,
{1}C1,
{1}7<3[4:5],
{2},C1,
{1}2>6[4:5],
{2},C1,
{4}7h[1:1],,B6,C1,
{4}2h[4:3],,E1,C1,
{1}4xqq1[4:3]/5xpp8[4:3],
{2},2b/7b,
{8}5/6h[2:1],,,3,3h[2:1],,,4,
{8}4h[8:3],,,2,2,,1x/2x,,
{8}3h[2:1],,,6,6h[2:1],,,5,
{8}5h[8:3],,,7,7,,7x/8x,,
{8}6h[2:1],,,4,4h[2:1],,,3,
{8}3h[8:3],,,2,2,,1x/2x,,
{8}3h[2:1],,,5,5h[8:3],,,6,
{4}6,7x/8x,1x/6x,,
{8}4/7h[2:1],,,5,5h[2:1],,,4,
{8}4h[2:1],,,2,2,,1x/2x,,
{8}2h[2:1],,,4,4h[2:1],,,5,
{8}5h[2:1],,,7,7,,7x/8x,,
{8}7h[2:1],,,6,6h[2:1],,,4,
{8}4h[2:1],,,2,2,,1x/2x,,
{8}3h[2:1],,,8,8h[2:1],,,1,
{4}1,1x/8x,2b/7b,,
{8}3,,2/4,,3,3,4x/5x,,
{8}6,,5/7,,6,6,4x/5x,,
{8}3,,2/4,,3,3,3x/4x,,
{4}5/6,7/8,1/2,3x/8x,
{8}6,,5/7,,6,6,4x/5x,,
{8}3,,2/4,,3,3,4x/5x,,
{8}6,,5/7,,6,6,5x/6x,,
{8}1/8,,2/7,,1,1,2b/7b,,
{8}3,,1/2,,3,3,4x/5x,,
{8}6,,7/8,,6,6,4x/5x,,
{8}3,,1/2,,3,3,3x/4x,,
{8}1/2,1/2,1/2,,7/8,,1x/6x,,
{8}6,,7/8,,6,6,4x/5x,,
{8}3,,1/2,,3,3,4x/5x,,
{8}6,,7/8,,6,6,5x/7x,,
{4}4/5,1/8,2b/7b,,
{1}7h[2:3]/1<3[4:5],,
{1}2h[2:3]/8>6[4:5],,
{1}5h[2:3]/7qq3[4:5],,
{1}4h[2:3]/2pp6[4:5],,
{8}6h[8:3],,,5,5,,4,,
{8}3h[8:3],,,4,4,,5,,
{8}7h[8:3],,,8,8,,1,,
{8}1,8,1,,2x/7x,,,,
{8}3h[8:3],,,4,4,,5,,
{8}6h[8:3],,,5,5,,4,,
{8}2h[2:1],,,8,8,,1/8,,
{1}C1f/B3/B6,
{4}2/8h[4:1],4,4/3h[4:1],8,
{4}7/1h[4:1],5,5/6h[4:1],1,
{4}2-5[8:1],7,6-1[8:1],3,
{4}2-5[8:1],8-4[8:1],1x,1x,
{4}8,5/7,1,2/4,
{4}8,5/6,1,2x/8x,
{4}7h[4:1],5h[4:1],4h[4:1],2x,
{4}1/8,2/7,3b/6b,,
{4}7/1h[4:1],5,5/6h[4:1],1,
{4}2/8h[4:1],4,4/3h[4:1],8,
{4}7-4[8:1],2,3-8[8:1],6,
{4}7-4[8:1],1-5[8:1],8x,8x,
{4}1,2/4,8,5/7,
{4}1,3/4,8,1x/7x,
{4}2h[4:1],4h[4:1],5h[4:1],7x,
{4}1/8,4/5,2b/7b,,
{8}1,1,8,2,3/4,,2/5,,
{8}5,5,4,6,5x/7x,,1x/7x,,
{8}8,8,1,7,5/6,,4/7,,
{8}5,5,4,4,3x/6x,,,,
{8}1,1,8,2,3/4,,5/6,,
{8}7,7,5,6,5x/6x,,1x/2x,,
{8}8,8,1,7,5/6,,3/4,,
{8}1,1,8,8,2b/7b,,,,
{8}1,8,1,7,5x/6x,,B4/B5/E5,,
{4}7x/8x,1x/6x,B4/B5/E5,C1/B3/B6,
{8}8,1,8,2,3x/4x,,B4/E5/B5,,
{4}1x/2x,3x/8x,C1/B3/B7,,
{8}2,1,2,8,1x/7x,,B4/E5/B5,,
{4}1x/2x,3x/8x,B4/E5/B5,C1/B3/B6,
{8}7,8,7,1,2x/8x,,B4/B5/E5,,
{4}B3/B6,E2/E8,E4/E6,E3/E7,
{1}C1f/B2/B3/B6/B7,
E

MASTER

(170)
{4}B3/B4/E4,B5/B6/E6,B1/B8/E1,E3/E7/Cf,
{0.5}4qq1[4:13]/5h[2:3],{2}5,6,7,8,{0.5}1h[2:3]/8qq5[4:13],{2}1,2,3,4,
{0.5}5qq2[4:13]/6h[2:3],{2}6,7,8,1,{0.5}7qq4[2:5]/8h[2:3],
{4}8,1,2,3,25,37,1-5[8:1]/8-4[8:1],1b/8b,
{16}3h[16:3],,,4,,,25,,6h[16:3],,,5,,,47,,3h[16:3],,,4,,,{8}25,6V84[4:1],6,1x,,
{16}2h[16:3],,,1,,,38,,7h[16:3],,,8,,,16,,2h[16:3],,,1,,,{8}38,4-8[8:1],4,7x,,
{16}6h[16:3],,,5,,,17,,3h[16:3],,,4,,,28,,6h[16:3],,,5,,,{8}17,3V15[4:1],3,8x,,
{16}7h[16:3],,,8,,,46,,2h[16:3],,,1,,,35,,7h[16:3],,,8,,,{8}46,5w1[8:1],5,,,
{16}3h[16:3],,,4,,2,2,,6h[16:3],,,5,,7,7,,3h[16:3],,,4,,2,{8}2,6V84[4:1],6,B3/B4/E4,,
{16}2h[16:3],,,1,,3,3,,7h[16:3],,,8,,6,6,,2h[16:3],,,1,,3,{8}3,B7/B8/E8,B1/B2/E2,B4/B5/E5,,
{16}6h[16:3],,,5,,8,8,,3h[16:3],,,4,,1,1,,6h[16:3],,,5,,8,{8}8,3V15[4:1],3,B5/B6/E6,,
{16}7h[16:3],,,8,,5,5,,2h[16:3],,,1,,4,4,,{4}Chf[4:3],,1x-5[8:1],1b,
{8}8,8,2,2,6h[4:1],,4,5,2h[4:1],,3h[4:1],,4,5,3,7,1,1,6,6,3h[4:1],,8h[4:1],,
{32}1,2,3,4,5,6,7,8,E2,E3,E4,E5,E6,E7,E8,E1,{2}E2/Cf,
{8}7,7,1,1,2/7h[4:1],,5,6,3h[4:1],,1h[4:1],,8,7,6,5,
4,35,26,17,{4}8^5[8:1],2,B3/B4/E4/C,B5/B6/E6/C,B1/B2/E2/C,B7/B8/E8/C,
{8}15,26,37,48,1^6[8:1]/5,,3,2,{2}1^4[8:1]/5h[4:3],6^1[8:1],
{8}26,26,37,37,{4}4/8h[4:1],4<8[4:1],8q4[4:1],4q8[4:1],8>4[4:1],4,
{8}7,6,3,2,{4}1^6[8:1]/5,C,1/5^2[8:1],C,1^6[8:1]/5,C,
{8}4,4,37,37,{4}2-8[8:1]/6-4[8:1],26,B6/B7/E7,B2/B3/E3,1v4[8:1]/5v8[8:1],{32}1b/5b,Cf,,,,,,,
{4}6q7[4:3],,,4,4q5[4:3],,,8,8q1[4:3],,,2,2q3[4:3],,,5,
5q8[4:3],,,1,1q4[4:3],,,6,6p3[4:3],,,2,2h[4:1],1,38,
{8}1-5[8:1],B8,1,,7-4[8:1],B3,7,,2-5[8:1],B7,2,,8-4[8:1],B1,8,,
2-7[8:1],B5,2,,6-3[8:1],B2,6,,4-1[8:1],B6,4,,8-5[8:1],C,8,,1^4[8:1],B6/B7,
{4}1^6[8:1],1-5[8:1],1,{8}8^5[8:1],B2/B3,{4}8^3[8:1],8-4[8:1],8,{8}1^4[8:1],B5/B6/C,
{4}1^6[8:1],1-4[8:1],1-6[8:1],1w5[8:1],1b,,B2/B3/B6/B7/Cf,
{8}1h[4:1],8,7h[4:1],6,5-1[8:1],4,35,,8h[4:1],1,2h[4:1],3,4-8[8:1],5,46,,
5h[4:1],4,3h[4:1],2,1-5[8:1],8,17,,4h[4:1],5,6h[4:1],7,8-4[8:1],1,28,,
3-7[8:1],3,4-6[8:1],4,2-8[8:1],2,7,,6-2[8:1],6,5-3[8:1],5,7-1[8:1],7,2,,
2-6[8:1],2,1^6[8:1],1,3^6[8:1],3,8,,7-3[8:1],7,8^3[8:1],8,6^3[8:1],6,1,,
1-5[8:1],6,1x-6[8:1],8,1x-4[8:1],2,1x,,8-4[8:1],3,8x-3[8:1],1,8x-5[8:1],7,8x,,
4-8[8:1],7,4x-7[8:1],5,4x-1[8:1],3,4x,,5-1[8:1],2,5x-2[8:1],4,5x-8[8:1],6,5x,,
2-4[8:1],1-7[8:1],2x-6[8:1],1x-5[8:1],2x>6[8:3],1x,2,,
7-5[8:1],8-2[8:1],7x-3[8:1],8x-4[8:1],7x<3[8:3],8x,7x,,
2-6[8:1],2,1b-5[8:1],1,8b-4[8:1],8,7b-3[8:1],7,1bw5[8:1],1,
{4}Cf,,2b/6b,4b-7[8:1]/8b,
7-4[8:1],4-1[8:1],1-4[8:1],4-7[8:1],7-4[8:1],4<3[4:1],C,7x-4[8:1],
4-7[8:1],7-2[8:1],2-7[8:1],7-4[8:1],4-7[8:1],7>6[4:1],C,1x-6[8:1],
6-1[8:1],1-4[8:1],4-1[8:1],1-6[8:1],6-1[8:1],1<2[4:1],C,6x-1[8:1],
1-6[8:1],6-3[8:1],3-6[8:1],6-1[8:1],1-6[8:1],6>7[4:1],C,3x-6[8:1],
6-1[8:1],1-6[8:1],6-3[8:1],3-8[8:1],8-3[8:1],3<2[4:1],C,5x-2[8:1],
2-7[8:1],7-2[8:1],2-5[8:1],5-8[8:1],8-5[8:1],5>6[4:1],C,2x-5[8:1],
5-8[8:1],8-5[8:1],5-2[8:1],2-7[8:1],7-2[8:1],2<3[4:1],C,8x-5[8:1],
5-2[8:1],2-5[8:1],5-8[8:1],8-3[8:1],3-8[8:1],8-4[8:1],4b-8[8:1],8bw4[8:1],
{1}Cf,,,,,,,,,,,
E

Re:MASTER


名前:
コメント:

タグ:

+ タグ編集
  • タグ:
最終更新:2026年04月05日 12:40