BASIC
(180)
{1},4,4,5,5,4,45,5,4x/5x,
{2}4,4,4,,3,3,3,,2,2,2,,1,1,18,,
7,7,7,,6,6,6,,5,5,5,,4,4,4x/5x,,
{1}B5,B4,B6,C,{2}1,1,1,,8,8,8b,
{1}1,12,3x,34,5,56,4hx[1:1]/5hx[1:1],,
B4,B6,B3,B5,B4,B7,B2,C,
8-5[4:3],,1-4[4:3],,5hx[1:1],,4hx[1:1],,4b/5b,,
{4}8x,8,8,,7,7,7,,6,6,6,,5,5,4x/5x,,
4,4,4,,3,3,3,,2,2,2,,1h[2:1]/8h[2:1],,,,
1,1,1,,2,2,2,,3,3,3,,4,4,4x/5x,,
5,5,5,,6,6,6,,7,7,7,,8,8,1x/8x,,
{1}7h[2:1]/8h[2:1],5h[2:1]/6h[2:1],3h[2:1]/4h[2:1],1h[2:1]/2h[2:1],
{4}18,18,18,,27,27,27,,36,36,36,,45,45,45,
{1}4h[1:1]/5h[1:1],,,
E
ADVANCED
(180)
{1},3h[1:1],4h[1:1],5h[1:1],6,
{2}7,78,2,12,{4}8,8,1,1,1-5[2:1]/8-4[2:1],,,,
3,3,34,,6,6,56,,3,3,34,,5,5,46,,
7,7,78,,2,2,12,,7,7,78,,18,18,2x/7x,,
{2}3h[4:1]4h[4:1],34,5h[4:1]/6h[4:1],56,3h[4:1]/4h[4:1],34,{4}56,56,47,,
8,8,7,7,6,6,5,5,4h[4:1]/5h[4:1],,3h[4:1]/6h[4:1],,27,27,2b/7b,,
1,1,2,2,3,3,4,4,4h[4:1]/5h[4:1],,3h[4:1]/6h[4:1],,2x/7x,2x/7x,2x/7x,,
3h[2:1],,4,34,6h[2:1],,5,56,3h[2:1],,4,34,45,45,36,,
2,2,1,,7,7,8,,1x,1x,8x,8x,2x-5[2:1]/7x-4[2:1],,,,
3,3,4,,6,6,5,,4,4,5,5,45,45,3x/6x,,
{1}2-6[2:1],7-4[2:1],3-8[2:1],7-3[2:1],
{2}B2,B4/E4,B7,B5/E6,B2,B4/E4,B7/E7,B3/B4,
5hx[4:1]/6hx[4:1],47,3hx[4:1]/4hx[4:1],25,1hx[4:1]/2hx[4:1],38,1hx[4:1]/8hx[4:1],27,
{8}36,,,6,6,,,7,7,,,8,8,,,1,{4}1,18,12,18,78,18,
2bV41[4:5]/7bV58[4:5],,{1},,
{4}2,2,12,12,3,4,5,6,7,7,78,78,6,45,3x/6x,,
7,7,78,78,6,5,4,3,2,2,12,12,18,18,2x/7x,,
2,12,7,78,6,56,4,35,2,12,7,78,18,18,2b/7b,,
6,56,3,34,2,12,8,17,6,45,34,45,36,36,2b/7b,,
{2}2h[4:1]/4h[4:1],{8}3,3,3,,{2}5h[4:1]/6h[4:1],{8}6,6,6,,
{2}7h[4:1]/8h[4:1],{8}7,7,7,,{2}1h[4:1]/2h[4:1],{8}2,2,2,,
{8}18,,,7,7,,,6,6,,,5,5,,,4,{4}45,36,27,18,
{8}1,1,8,8,18,18,,27,
,,,,,,,C,
{1},,,,
E
EXPERT
(180)
{4}3/6h[1:1],,5,,4,4,5,,3h[1:1],,4,,5,5,4,,
3,3,34,34,6,6,56,56,
{8}3,3,5,5,4,4,6,6,{4}4-8[4:1]/5-1[4:1],,,2b/7b,
{8}3,{4}34,46,56,35,34,{8}5,{4}45,7b,
{8}6,{4}56,35,34,46,56,{8}4,{4}45,2b,
{8}34,{4}3h[8:1]/4h[8:1],4h[8:1]/6h[8:1],5h[8:1]/6h[8:1],
3h[8:1]/5h[8:1],3h[8:1]/4h[8:1],{8}4,{4}45,7b,
{8}56,{4}5h[8:1]/6h[8:1],3h[8:1]/5h[8:1],3h[8:1]/4h[8:1],
4h[8:1]/6h[8:1],5h[8:1]/6h[8:1],{8}4,{4}45,2b/7b,
8^5[4:1],,1^4[4:1],,6h[4:3],5,7,5,
4^1[4:1],,5^8[4:1],,2h[4:3],1,3,1,
{2}3^6[4:1],7p3[4:1],2q6[4:1],{4}8,8,
{2}2hx[4:1]/8,1hx[4:1]/7,8p5[4:1],1b,
{4}28,18,8,7,6,5,4,3,{2}2xh[4:1],1hx[4:1],
{16}8,1,8,1,8,1,8,1,{4}8,2x/7x,
4,35,{8}2,2,{4}12,8,17,{8}6,6,{4}56,4,35,{8}26,26,{4}6<3[2:1],4x,,,2b/7b,
{1}4h[2:1]/5h[16:9],{8}4,4,5,5,45,,36,36,,
{16}2hx[8:1]/4hx[8:1],,,3hx[8:1]/5hx[8:1],,,4hx[8:1]/6hx[8:1],,,
5x/7x,,,{8}8x,{4}8xw4[4:1],,,2b/6b,
{4}3-6[4:1],,7h[4:1],6,4/6-3[4:1],,2h[4:1],4,
3-6[4:1]/5,,7h[1:1],5,{1}Ch[2:1],
{4}6,E6/E7,,6,5,E5/E6,,5,4,E4/E5,,4,3,E3/E4,,3,
4h[1:1],E5,,E4,5h[1:1],E5,,E6,
E7,C,E3,E1,C,E5,E4/E6,,
3/6^3[4:3],,2,2,3/6^3[4:3],,2,2,
3/7p3[4:3],,1,1,3/7p3[4:3],,1,1,
{8}3hx[4:1]/4hx[4:1],,,45,4hx[4:1]/5hx[4:1],,,56,
5xh[4:1]/6hx[4:1],,,45,4hx[4:1]/5hx[4:1],,,45,
3,3,6,6,2,2,7,7,18,18,18,18,
{16}1x/8x,,,2x/7x,,,3xq6[4:3]/6x,,{1},{4}Ch[2:1],,,1b/8b,
2-4[8:1],1-5[8:1],2-4[8:1],8-6[8:1],1-5[8:1],8,{8}78,16,25,,
{4}7-5[8:1],8-4[8:1],7-5[8:1],1-3[8:1],8-4[8:1],1,{8}12,38,47,,
{4}3-1[8:1],4-8[8:1],3-1[8:1],5-7[8:1],4-8[8:1],5,{8}56,47,38,,
{4}6-8[8:1],4-1[8:1],5-8[8:1],3-1[8:1],4,56,{8}18,27,3b/6b,,
{4}3-5[8:1],6-2[8:1],3-5[8:1],7-1[8:1],2-6[8:1],5,{8}7,68,15,,
{4}6-4[8:1],3-7[8:1],6-4[8:1],2-8[8:1],7-3[8:1],4,{8}2,13,48,,
{4}1-6[8:1]/7,5-2[8:1],1-6[8:1],5-2[8:1],1-6[8:1],5,{8}3,24,15,,
{4}2/8-3[8:1],4-7[8:1],8-3[8:1],4-7[8:1],8-3[8:1],4,{8}5,5,3b/7b,,
1h[4:1]/2h[4:1],,,12,38,,56,,7h[4:1]/8h[4:1],,,78,16,,34,,
5h[4:1]/6h[4:1],,,56,47,,12,,1h[4:1]/8h[4:1],,,18,2b/7b,2b/7b,2b/7b,2b/7b,
{16}3,4,3,4,3b,,,,6,5,6,5,6b,,,,2,3,2,3,2b,,,,7,6,7,6,7b,,,,
{8}4,3,6,7,3,2,5,6,{16}1,7,1,7,1,7,1,7,
{8}8,8w4[8:1],,,,,,,,,7b,
{1},,,,,,
E
MASTER
(180)
{8}5,6,4,3,6,5,3,4,
6h[8:7],{4}5,5,5,{8}5,3h[8:5],{4}4,4,{16}4,,3x,4x,3x,,
{8}6h[8:7],{4}5,5,5,{8}5,3h[8:5],{4}4,4,{16}4,,3x,4x,3x,,
{4}2h[4:1]/5,4,6h[4:1],5,3h[4:1],4,7h[4:1],5,
{8}3,3,4,4,5,5,6,6,{16}2,4,3,5,4,6,5,7,{8}1x,1x,2x/7x,,
1-5[8:1],1,8-6[8:1],8,1-5[8:1],1,8-6[8:1],8,1-5[8:1],1,8,8,17,26,35,,
8-4[8:1],8,1-3[8:1],1,8-4[8:1],8,1-3[8:1],1,8-4[8:1],8,1,1,28,37,46,,
4-8[8:1],4,5-7[8:1],5,4-8[8:1],4,5-7[8:1],5,4-8[8:1],4,5,5,46,37,28,,
5-1[8:1],5,4-2[8:1],4,5-1[8:1],5,4-2[8:1],4,5-7[8:1],5,1,1,18,18,27,,
24,3,45,6,57,6,{16}4,5,{8}4,25,3,{16}6,5,6,5,{4}6,57,
{8}13,2,18,7,68,7,{16}1,8,{8}1,38,2,{16}7,8,7,8,{4}7,3x/6x,
2b/5h[4:3],1b,8b,7b,1h[4:3]/6b,5b,4b,3b,
B1/B2/B4/B5/B8/C/E4,8x,B6/B7/E6/E8,1x>8[2:1],{2}8,Cf,
{4}2,1,8,7,6,5,4,3,{2}B1/B2/B4/B5/B8/C/E4,B6/B7/E6/E8,
{16}1,7,1,7,1-5[8:1],7,1,7,{4}1,37,
{8}3,4,,35,2^5[8:1]/4,,25,,6,5,,64,5/7^4[8:1],,47,,
3,4,,35,2^5[8:1]/4,,25,,{16}6,5,6,5,7-3[8:1],5,7,5,{4}7,15,
{2}4h[2:1]/6,{16}6,5,{8},,,35,26,{16}7>6[4:1],1,7,1,,,,,E2,E3,E4,,
,,1b/8b,,,5b/7b,,,1b/8b,,,2b/4b,,,1b/8b,,
,,3x/7x,,2<3[4:1],8,2,8,,,,,E8,E7,E6,,
{4}1-4[8:1],6,{16}5/6h[16:3],,,8,7,,1,,
{4}2/8-5[8:1],3,{16}3h[16:3]/4,,,1,2,,8,,
{4}1-4[8:1]/7,6,{16}5/6h[16:3],,,8,7,,1,,
{4}8-4[8:1],3>5[4:1],Cf,,
{8}6,6,5x,6h[16:3],{16},4,,3,3x,,5,,
{8}3,3,4x,3h[16:3],{16},5,,6,6x,,4,,
{8}7,7,6x,7h[16:3],{16},5,,4,4x,,6,,
{8}2,2,3x,2h[16:3],{16},4,,5,5x,,3,,
{8}6,6,5x,6-1[8:1],{16},3,,2,2x,,8,,
{8}3,3,4x,3-8[8:1],{16},5,,6,6x,,1,,
{8}7,7,1x,8-5[8:1],{16},2,,3,3x,,6,,
{8}2,2,8x,8h[16:3],{16},1,,27,{4}2x/7x,
{8}6-3[8:1],6,1,1,2-7[8:1],2,5,5,6-3[8:1],6,1,1,2-7[8:1],2,5,5,
6-1[8:1],6,2-5[8:1],2,8-6[8:1],8,1-3[8:1],1,
5-8[8:1],5,4-1[8:1],4,8,8,2x/7x,,
3x/8x,,,34,1x/6x,,,56,3x/8x,,,45,2x/7x,,,3,
2x/4x,6,5x/7x,3,1x/4x,6,5x/8x,4,3x/5x,35,4x/6x,46,
{16}2b/5b,,,4x/7x,,,1bq4[4:3]/8bp5[4:3],,{1},{4}Ch[4:3],,,1b,
{8}28,1,78,{16}2,2,{8}8h[8:1],3,24,{16}1,1,
{8}7h[8:1],5,48,{16}3,3,{8}4,1,56,8,
37,1,25,{16}6,6,{8}4h[8:1],8,57,{16}6,6,{8}2,34,5,46,7,56,4,35,
16,2,38,{16}7,7,{8}1h[8:1],6,57,{16}8,8,
{8}2h[8:1],4,15,{16}6,6,{8}5,8,34,1,
{8}26,8,47,{16}3,3,{8}5h[8:1],1,24,{16}3,3,{8}24,35,46,57,1,28,3b/7b,,
24,1,7h[8:1]/8,{16}2,2,{8}2,4,3/5h[8:1],{16}1,1,
{8}1,6,5/7h[8:1],{16}3,3,{8}3,8,24,1,
57,1,2h[8:1]/8,{16}7,7,{8}7,4,3h[8:1]/5,{16}6,6,{8}6,57,46,35,14,25,36,47,
28,7,1/6h[8:1],{16}2,2,{8}2,4,3/5h[8:1],{16}1,1,
{8}1,6,5/7h[8:1],{16}3,3,{8}3,8,24,1,
78,56,34,{16}2b,1b,{8}2b,34,56,{16}7b,8b,
{8}7b,56,34,{16}1b,1b,{8}1b,28,3b/7b,,
{2}4-2[8:1]*-6[8:1],{16}3,,5,5,4,,6,6,
{2}5-3[8:1]*-7[8:1],{16}6,,4,4,5,,3,3,
{2}4-2[8:1]*-6[8:1],{16}3,,5,5,4,,6,6,
{2}5-3[8:1]*-7[8:1],{8}45,45,45,45,
{16}3,3,3,3,3,,2x/4x,,5,5,5,5,5,,4x/6x,,
1,1,1,1,1,,2x/8x,,7,7,7,7,7,,6x/8x,,
1,1,1,1,2,2,2,2,1,1,1,1,8,8,8,8,1,1,1,1,1,1,1,1,
{8}1,2/8w4[8:1],,8,,,,,,,7b,
{1},,,,,,
E
Re:MASTER
最終更新:2026年04月11日 21:31