アットウィキロゴ

ワンダーシャッフェンの法則

アーティスト アリスシャッハと魔法の楽団

BPM BASIC ADVANCED EXPERT MASTER Re:MASTER
170 4 7+ 10+ 14 -

EXPERT MASTER Re:MASTER
譜面制作者 サファ太 Jack -

BASIC


ADVANCED


EXPERT

(170)
{1}3^5[4:1],3^5[4:1],{2}6h[2:1],5h[2:1],4,3,
3h[2:1],4h[2:1],{4}5,5,{2}46,5/6h[1:1],4h[2:1],,35,
{4}6^4[4:1],,3,3,6^4[4:1],,3,3,
{2}3h[4:1]/4h[4:1],5h[4:1]/6h[4:1],4/7^4[4:1],,
{4}3,3,4,4,35,45,46,,5h[4:1]/6h[4:1],,3h[4:1]/4h[4:1],,5,4,36,,
3h[1:1]/5,,4,4,6h[1:1],,5,5,2h[4:3],,4,4^1[2:1]*^7[2:1],,,,,
{2}7h[2:1],5h[2:1],4h[2:1],2h[2:1],{1}1<3[4:3],8>6[4:3],Chf[2:1],
{4}7b/8b,12,34,56,4/7^5[8:1],4,1^3[8:1]/4,4,
4x/7x,56,34,25,1-5[8:1]/6,7,3/8-4[8:1],2,
2b/6b,,2h[4:1]/5,{8}4,4,{4}3,4/7h[4:1],{8}5,5,{4}6,
B4,B2/E3,B5,B7/E7,Ch[2:1],,8b,,
12,7^4[4:1]/8p3[4:1],,,28,3q8[4:1]/7^4[4:1],,,
12,3^8[4:1]/7q4[4:1],,,56,34,12,38,
2h[4:1]/7,4,3/6h[4:1],5,3,24,6,5/7^2[2:1],,,3,4w8[8:1],,,2x/6x,,
5/7h[4:1],8,2h[4:1]/4,1,{2}7x-5[8:1]/8x-4[8:1],4x-2[8:1]/5x-1[8:1],
{4}12,38,47,56,{2}3x-1[8:1]/4x-8[8:1],1x-5[8:1]/8x-6[8:1],
4x/7x,{16}1,8,1,8,1,8,1,8,{2}2h[2:1],Cf,1bp8[1:1]/8b<1[1:1],,,2x/7x,
{8}6,56,,4,45,,7,57,,3,35,,{4}2x,2x,
{8}3,34,,5,45,,2,24,,6,46,,{4}5x/7x,5x/7x,
{8}6,56,,4,35,,7,57,,4,{4}35,2x/6x,3x/7x,6,45,3,24,3,46,3b/7b,,
{8}3h[2:1],,4,4,4,,25,,6h[2:1],,5,5,5,,47,,
2h[2:1],,1,1,1,,3>6[2:1]/7,,{4},,,4x/5x,
3h[4:1],4h[4:1],5h[4:1],6<4[4:3],
{2},,3>5[4:3],,,36,2>8[4:3]/7<1[4:3],,,2b/7b,
{2}4x^1[8:1]/8x^5[8:1],1x^4[8:1]/5x^8[8:1],
4x^1[8:1]/8x^5[8:1],1x^4[8:1]/5x^8[8:1],
{8}4x/8x,,6,6,57,,3,3,{4}24,45,57,45,
{2}3x-1[8:1]/5x-7[8:1],1x-4[8:1]/7x-4[8:1],4xw8[8:1],2b/6b,
{4}7h[4:1]/8,5,2h[4:1]/4,1,{2}3-8[8:1]/7-4[8:1],1b/5b,
7x-5[8:1]/8x-4[8:1],4x-2[8:1]/5x-1[8:1],
1x-7[8:1]/2x-6[8:1],6x-4[8:1]/7x-3[8:1],
{8}3x/4x,,25,2,{4}12,78,{2}5w1[8:1]/6,3b/7b,
1x-5[8:1]/2x-4[8:1],4x-8[8:1]/5x-7[8:1],7x-4[8:1]/8x-3[8:1],2b/5b,
{4}18,18,78,6/7pp3[4:3],,,,,
{2}1^4[4:1],6^1[4:1],3bpp7[4:3],
{1},,,,
E

MASTER

(170)
{8}5h[4:1],,2^4[16:3],4,5h[4:1],,,,6h[4:1],,2^4[16:3],5,6h[4:1],,,,
7h[4:1],,2^5[4:1],6,{4}5^8[4:1],8^3[4:1],3^6[4:1],,
C,8-4[8:1],,{8},3,{4}3h[4:1],2^7[4:1],7^4[4:1],4^1[4:1],1^6[4:1],,
3h[4:1],4h[4:1],5h[8:3],{8},6<3[8:5],{4}6,E3,E5,E7,
{8}45,,4/7^5[16:3],5,4,,4,,45,,4/7^5[16:3],5,4,,4,,
12,,7/8^3[4:1],5,{4}3^6[4:1],6qq3[2:1],3,,B1/B8,B4/B5,
{8}18,,4-8[8:1],5,{4}4,2q6[4:1]/6,6q2[4:1],2>6[4:1],6<2[4:1],,
{8}5h[8:3],,,4,4h[8:3],,,3>6[8:5],{4}3,B6/E6,B1/B8,B3/E4,
5/7p2[8:3],5,5,{8}57,18,{4}2^7[8:1]/4,4,7^2[8:1]/4,{8}4,5,
{4}3-5[8:1]/6,7-1[8:1],2-6[8:1],5<4[2:1],Ch[2:1],,,,
{8}1,E3,1,E4,8,E7,8,E6,2,E4,2,E5,7,E6,7,E5,
1h[16:7]/8h[16:7],,,,18,27,36,45,
{16}2x/7x,,4,5,2,4,2,4,3x,7,5,7,5,6,4x,5x,
3,4,2,5,1,8,2,7,5x,6,4,7,3,8,2,1,
{4}2bv5[8:1]/8xv5[8:1],2x^5[8:1]/8b^5[8:1],2b/8b,{8}36,5,
1-6[8:1]/4,2,1/4-8[8:1],5,1-6[8:1]/4,2,1/4>7[4:1],5,
1b/4x,,,12,4/7h[4:1],,5-1[8:1],4,
8-3[8:1]/5,7,5-1[8:1]/8,4,8-3[8:1]/5,7,5<2[4:1]/8,4,
5x/8b,,,34,2h[4:1]/5,,1,2,{4}3/8^3[8:1],6/8^5[8:1],2/8-4[8:1],
4qq1[8:3]*pp7[8:3],{2},8w4[8:1],
{8}2-5[8:1]/6,1,7-3[8:1],{16}8,8,{8}1-6[8:1],2,1b/5b,,
7h[8:3],,,5,{4}5-8[8:1],6,{16}7h[16:3],,,6h[16:3],,,5,,{4}5-3[8:1],7-3[8:1],
{8}2h[8:3],,,4,{4}4-1[8:1],3,{16}2h[16:3],,,3h[16:3],,,4,,{4}4-6[8:1],2-6[8:1],
{2}8hx[2:3],{12}E7,B6,B5,B4,B3,E3,{4}1hx[2:1],,,2^7[4:1]/7,,
{8}6,5,57,,3,4,2h[4:1]/4,,7h[4:1],,{16}5,7,4,6,3,5,2,4,
{8}1b-4[8:1],6,1-6[8:1],7,1^4[8:1],{16}8,8,{8}1-5[8:1],7,
{4}1-3[8:1]/7x-3[8:1],1-6[8:1]/7x,1^4[8:1]/5x^8[8:1],1x/5x,
{8}3x/8x-5[8:1],3,8-3[8:1],2,8^5[8:1],{16}1,1,{8}8-4[8:1],2,
{4}2x-6[8:1]/8-6[8:1],2x/8-3[8:1],4x^1[8:1]/8^5[8:1],4xq2[8:3]/8xq6[8:3],
{2},{16}5,1,4,8,3,7,2,6,{2}1/5hx[2:1],
{12}1h[12:1],2h[12:1],3h[12:1],4h[12:1],5h[12:1],6h[12:1],{1}7pp2[8:5],
{16}4,5,3,6,2,7,1,8,{24}E2,E3,E4,E8,E7,E6,{32}B1,B2,B3,B4,B8,B7,B6,B5,
{1}Cf,{8}5,4,35,,46,,57,,
8,8h[4:1],,7,7h[4:1],,6,6h[4:1],,5h[4:1],,{16}6,5,{4}6,35,
{8}1,1h[4:1],,2,2h[4:1],,3,3h[4:1],,4,4h[4:1],,5-1[8:1],,,,
6h[4:1],8,5h[4:1],7,4h[4:1],{16}2,2,{8}3h[4:1],1,4,56,78,12,45,,C,,
1x/7^4[8:1],,,{16}2,2,{8}3,,46,37,2^5[8:1]/8x,,,{16}7,7,{8}6,,35,26,
1x/7p2[8:1],,,{16}1,1,{8}8,,{24}3,4,5,6,,,
{8}6hx[4:1],4,5h[4:1],3,4h[4:1],2,{16}3,5,2,6,
{4}1-5[8:1],1/7-4[8:1],7/8-3[8:1],5>6[8:3]/8,1,{16},,2,3,{4}4,4/5p4[8:3],
1,{8}2,2,3,3,4,4,5,5,6,6,47,{16}3,4,{8}3,25,
4q5[8:3],,5,6,7,8,1,2,34,56,{16}4,5,3,6,4,5,2,7,4,5,1,8,
{8}1b^6[32:3]/7hx[2:1],,,{32}5x,4x,3x,2x,{4}1xw5[8:1],Cf,
{8}2hx[2:1]/8b^3[32:3],,,{32}4x,5x,6x,7x,{4}8xw4[8:1],Cf,
1/7h[4:1],{8}8-5[8:1],7,{4}1-4[8:1]/8,1/2>7[16:3],
{8}2/8h[4:1],,1,2/7-3[8:1],,78,2-6[8:1],,
1x/2x,,5-8[8:1]/7,46,{4}3-6[8:1]/5,3/7-2[8:1],1-4[8:1]/7,1/8q1[8:3],Cf,,
4^1[8:1]/8^5[8:1],4q5[8:3],{8},,,7,{4}7^2[16:3],5<4[8:3],
{24}E5,E6,E7,E8,E1,E2,E3,E4,E5,,,,
{8}2b/7b,,2^4[8:1]/8-4[8:1],1,{4}2-6[8:1]/8^6[8:1],28,
{8}45,,1-5[8:1]/7^5[8:1],8,{4}1^3[8:1]/7-3[8:1],17,
{8}24,,5-8[8:1]/7,6,{4}4-1[8:1]/5,3>6[4:1]/4,
{8}3/5h[8:3],,,4,{2}B1/B2/B7/B8/Cf/E3/E7,
{8}1b/8-3[8:1],,5-1[8:1]/8,4,5/8-3[8:1],7,5-1[8:1]/8,4,
5/8x-3[8:1],7,5x<2[4:1]/8,4,5/8b,,,,
1x-6[8:1]/8,,1/4-8[8:1],5,1x-6[8:1]/4,2,1/4>5[8:3],5,
1b/4,,,,{16}1,5,2,6,3,7,4,8,
{12}3,1,1,3x,8,8,3,7,7,3x>6[32:5],6,6,Cf,
{1},,,,
E

Re:MASTER


  • MASTER譜面のノーツの配置ミス、SLIDEの速度の修正、EXノーツの修正を行いました。 -- けもがみ (2026-05-16 17:10:12)
名前:
コメント:

タグ:

+ タグ編集
  • タグ:
最終更新:2026年05月16日 17:10