アットウィキロゴ

BIRTH

アーティスト llliiillliiilll

BPM BASIC ADVANCED EXPERT MASTER Re:MASTER
176 3 7+ 12+ 14 -

EXPERT MASTER Re:MASTER
譜面制作者 はっぴー Safata.Hz -

BASIC


ADVANCED


EXPERT

(176)
{4}2/7h[4:3],,,5,5h[4:3],,,4,4h[4:3],,,2,2h[4:3],,,6,
{8}5,5,4,6,5,4,7,5,4,4,6,3,2,5,6,4,
7,6,5,5,7,4,3,5,2,2,7p5[2:1],7,,,,,
{1}1h[1:1],2h[1:1],3h[1:1],{2}4,{12}5,5,4,,36,36,
{2}3/6h[2:1],7h[2:1],8h[8:21],1h[8:17],,,,{4},27,
{8}4,4h[8:1],5,6,46,7h[8:1],5,5,8,8,1,24,5,5,3,2,
7,7h[8:1],5,4,35,2h[8:1],4,4,1,1,8,57,4,4,6,7,
7,1,1,4,4,3,2,8,8,3,6,5,4,4,6,7,
58,4,4,36,5,5,3,2,14,5,5,36,4,3,2,5,
6,6h[8:1],5,4,35,2h[8:1],4,4,1,1,8,57,4,4,6,7,
3,3h[8:1],4,5,46,7h[8:1],5,5,8,8,1,24,5,5,3,2,
2,8,8,5,5,6,7,1,1,6,3,4,5,5,3,2,
14,5,5,36,4,4,6,7,58,4,4,36,36,45,45,,
7<3[8:3],,,,,,1,1h[2:1],,,,4,4,,35,,
2>6[8:3],,,,,,8,8h[2:1],,,,5,5,,46,,
2,3,,24,,6,,5/7h[8:3],,6,5,,
{4}8h[4:1],6h[4:1],4h[4:1],2h[4:1],8h[4:1],{8}5p4[2:1],5,{4},,,45,
{8}3>7[8:3],,,,,,5,5h[2:1],,,,3,3,,27,,
6<2[8:3],,,,,,4,4h[2:1],,,,6,6,,37,,
7,6,,57,,2,3,4,5h[8:3],,,1h[8:3],,,3>4[1:1],,{2},,,{16}1,8,1,,2b/7b,,,,
35,,6,5,{8}7,1,1,4,6,3,2,8,8,6,5,4,4,5,
46,{16}3,4,{8}2,8,8,5,3,6,7,1,4,5,7,8b,8b,37,
2,1h[8:1],4h[8:1],1,1,26,7,8h[8:1],5h[8:1],8,6,5,4,3,3,5,
46,7,8,1,35,2,1,8,46,7,8,1,35,2,18,7,
46,{16}3,4,{8}2,8,8,6,4,{16}6,5,{8}7,1,1,3,5,7,8,4,
35,{16}6,5,{8}7,1,1,3,5,{16}3,4,{8}2,8,6,4,3,1b,1b,26,
7,8h[8:1],5h[8:1],8,8,37,2,1h[8:1],4h[8:1],1,3,4,5,6,6,4,
35,2,1,8,46,7,8,1,35,2,1,8,46,7,1>8[2:3]/8,,
{0.5}Cf,8h[4:7],8<1[2:3],{2}1h[2:1],2h[2:1],3h[2:1],5,
{8}4h[4:1]/6h[4:1],,,4h[4:1]/6h[4:1],,,46,3,
3h[4:1]/5h[4:1],,,3h[4:1]/5h[4:1],,,35,6,
46,,7,6,,3,2,,24,5,6,6,3,5,1h[4:1],,{1}8b,{4}Cf,,,27,
{16}3,,7,6,5,,3,,7,6,5,,3,,3,,6,,2,3,4,,6,,2,3,4,,6,,6,,
{12}E2,E8,E3,E7,E4,E6,{8}4,4,5,4,
{16}7,,3,4,5,,7,,3,4,5,,7,,7,,2,,6,5,4,,2,,6,5,4,,2,,2,,
{8}3h[8:1],7h[8:1],3h[8:1],7h[8:1],3h[8:1],7h[8:1],3,2,
{16}2,3,4,,1,,7,6,5,,8,,2,3,4,,1,,7,6,5,,8,,
8,,4,3,2,,8,,5,6,7,,1,,4,3,2,,8,,8,,3,,
3,,6,7,8,,5,,3,2,1,,4,,6,7,8,,5,,3,2,1,,
5,,1,8,7,,4,,8,1,2,,5,,1,8,7,,4,,4b,,,,
{4}6-3[8:1],2^7[8:1],5h[2:1],,3-6[8:1],7^2[8:1],4h[2:1],,
6-3[8:1],2q7[8:1],5h[2:1],,3-6[8:1],7p2[8:1],4h[16:13],,,{16},
{1}8b,,,,,,
E

MASTER

(176)
{1} ,,
{8}5h[1:1],,,4,,,4,4,3h[1:1],,,4,,,4,4,
6h[8:11],,,5,,,5,5,4h[8:3],,,,,35,35,,
7,5,6,3,3,5,5,1,2,5,4,6,3,3,8,7,
3,5,4,6,7,2,3,6,4,4,5,3,{12}7,5,6,2,4,3,
{1}5h[8:7]/7-4[2:1],3-6[2:1]/5h[8:7],5h[8:7]/7-3[2:1],
{2}2h[4:1]/5h[4:1],{12}3,7,5h[6:1],,6,4,
{8}5h[4:1],,4,4,6h[4:1],,5,5,7h[4:1],,6,6,8h[4:1],,1,1,
{4}1b/8b,1,2,2,3,3,{8}37,{24}5,4,6,{4}5b,

{8}7,{4}7-5[8:1],7-3[8:1],4-7[8:1],2-8[8:1],6-4[8:1],2-6[8:1],5h[4:1],4,
{8}2-4[8:1],2-6[8:1],,,5,5,,7,{4}7-5[8:1],7-3[8:1],4-1[8:1],6,
{8}5,6,{4}7^2[8:1],3^6[8:1],8^5[8:1],{8}2,3,{4}4>5[4:3],Cf,,,,{8}18,27,,
{16}3,5,4,6,4,6,3,5,3,6,2,7,1,,,,
{8}2b,{4}2-4[8:1],2-6[8:1],5-2[8:1],7-1[8:1],3-5[8:1],7-3[8:1],4h[4:1],5,
{8}6,5,7-3[8:1],4,4,,2,4,{4}2-4[8:1],2-6[8:1],5-8[8:1],3,
{8}4,3,{4}2^7[8:1],6^3[8:1],1^4[8:1],{8}7,6,{4}5<4[4:3],Cf,,,,{8}18,27,,
{16}3,5,4,6,4,5,3,4,3,5,2,6,8,,,,

7b/4b,,3,4,3,,25,,6,5,6,,47,,6,,26,,7,8,7,,16,,2,1,2,,38,,2,,
26,,3,4,2,,15,,6,5,7,,48,,3,,35,,2,1,3,,48,,7,8,6,,51,,2,,
28,,7,3,6,4,5,,3,4,2,5,1,,7,8,7,,2,6,3,5,4,,6,5,7,4,8,,2,1,
2,,5,4,6,5,7,,4,5,3,4,2,,1,,18,,7,2,7,,3,4,,6,5,,47,,,,
25,,3,4,3,,16,,7,8,7,,7,5,6,4,5,,3,4,2,,15,,2,4,3,,5,4,5,4,
5,,6,5,6,,38,,2,1,2,,2,4,3,5,4,,6,5,7,,48,,7,5,6,,4,5,4,5,
3,4,2,4,1,,7,8,6,8,5,,{8}16,27,3-8[8:1]/8,,6,6-3[8:1],,2,2h[4:1],,
{4}1<5[4:1],5>1[4:1],1<1[2:1],C,1<5[32:7],5,
{32}4,3,2,1,8,7,6,5,{4}1b,

{8}2-4[8:1],4V28[4:1],2-8[8:1],{4}8-6[8:1],
4-2[8:1]*-8[8:1],4-6[8:1],46,3/8-4[8:1],2/8-2[8:1]*-6[8:1],
8,{8}15,2,3/7V53[8:1],,1pp6[2:1],,8,8b,,,,,,7,
{4}5-8[8:1]/7-5[16:1],5x/7-3[8:1],1/7x,
2-6[8:1],2-4[16:1]/4x-1[8:1],2x/4,8V24[8:1]*V64[8:1],8,2b/6b,
{8}8h[8:1],7h[8:1],6h[8:1],5h[8:1],4h[8:1],3h[8:1],2,
18,{24}2,4,,{8}3,45,{16}6,5,{8}7,4b/8b,,
{8}7^5[8:1],5^7[8:1],7>3[4:1],{4}1^3[8:1],
5-1[8:1]*^7[8:1],5^3[8:1],35,1-5[8:1]/6,1^3[8:1]*^7[8:1]/7,
1,{8}48,7,{4}2>6[8:1]/6,8qq3[2:1],{8}1,1b,,,,,,2,
{4}2^4[16:1]/4-8[8:1],2-6[8:1]/4x,2x/6,
7-3[8:1],5x-1[8:1]/7^5[16:1],5/7x,8>4[8:1]*<4[8:1],8,2b/6b,
{8}1h[8:1],2h[8:1],3,5h[8:1],6h[8:1],7-1[8:1],2-4[8:1],
7-5[8:1],2-6[8:1],7-1[8:1],2-8[8:1],7-3[8:1],2,7,,

{2}1b/4b-1[2:7],8,7,6,5,4,3,2,
1/5-8[4:13],8,7,6,E6`B5,B3`E4,B2`E2,{8}5,5,46,35,
2h[8:5]/4,,,4,,,4h[4:1],,
{32}1,8,7,6h[32:17],{8},,5,,5,5h[4:1],,
{32}8,1,2,3h[32:17],{8},,4,,,4h[4:1],,
{32}1,8,7,6h[32:19],{8},,5,,5,5,,
{32}15,26,37,4h[32:29]/8h[32:29],{8},,,,,,,
{32},37,26,1h[32:17]/5,{8},,,,8,27,,

{16}8b,1,7,,26,,3,5,4,6,3,7,2,6,1,5,2,4,3,5,4,5,3,4,2,8,1,7,5,6,4,5,
{12}1,1,3,8,8,6,{16}1,2,3,4,7,6,5,4,
8b,7,1,,26,,7,5,6,3,4,2,7,5,7,5,7,6,7,8,7,1,6,2,5,2,4,2,3,2,1,2,
8,4,8,4,6,2,6,2,5,3,6,4,5,,27,,
3b,4,2,,15,,6,5,7,,48,,7,8,6,1,5,2,1,3,8,4,7,
7h[8:1],,5,5h[8:1],,4,4h[8:1],,2,2,,12,,3,8,2,4,2,4,2,4,6,4,6,4,
6b,4,1,7,2,6,3b,4,2,5,3,6,2,1,3,7,5,7,5,4,5,4,5,7,
1b,3,1,3,1,8,1b,7,5,6,3,5,4,8,5,8,1,4,1,3,2,6,5,7,
{4} 1b>7[2:1],,7^2[4:1],2<4[2:1],Cf,,,36,

{16} 2b,7,3,6,4,5,1b,8,2,7,3,6,1b,8,1,8,
{24} 2b,3,4,8b,7,6,1b,2,3,7b,6,5,
{32} 2b,3,4,5,6,7,8,1,2b/7x,6,5,4,3,2,1,8,
{48} 3b/7b,26,15,
{4} 4q8[8:1]/8q4[8:1],
{96} 4bp2[16:63]/8bp6[16:63],{1}B1/B2/B3/B4/B5/B6/B7/B8/Cf,,,,,,,
E

Re:MASTER


  • MASTER譜面のノーツの配置ミス、SLIDEの速度の修正を行いました。 -- けもがみ (2026-02-12 06:43:34)
名前:
コメント:

タグ:

+ タグ編集
  • タグ:
最終更新:2026年04月12日 14:03