アットウィキロゴ

アージェントシンメトリー

アーティスト Sta feat.b

BPM EASY BASIC ADVANCED EXPERT MASTER Re:MASTER
172 2 5 7+ 10+ 13 14

EXPERT MASTER Re:MASTER
譜面制作者 Revo@LC Jack 譜面-100号

EASY


BASIC


ADVANCED


EXPERT


MASTER

(172)
{1},

{16}26,,,37,,,{8}4V28[4:1]/8V64[4:1],{2}48,
{1}1V35[4:1]/5V71[4:1],
{16}37,,,26,,,{8}1V35[4:1]/5V71[4:1],{2}15,
{1}4>5[8:5]/8,
{16}26,,,37,,,{8}4V28[4:1]/8V64[4:1],{2}48,
{1}1/5<4[8:5],
{8}5,4,{4}36,{8}18,1pp4[8:5]/8qq5[8:5],{4},
{2},{4},27,

{4}1,56,8,{8}34,3>6[8:5]/4,
{4},5,4,3qq7[2:1]*pp7[2:1],
{2},{4},{8}15,26,
{8}37,4^1[8:1]/8^5[8:1],,,,48,{4}1^4[8:1]/5^8[8:1],
{4},15,23,48,
{4}67,1pp8[8:3]/5pp4[8:3],{2},
{8},4-1[8:1],3,2,,8-5[8:1],7,6,
{8},4-8[8:1],3,2,{4}1-5[8:1],6,

{4}8,34,1,{8}56,5/6<3[8:5],
{4},4,5,6qq2[2:1]*pp2[2:1],
{2},{4},{8}48,37,
{8}26,1^4[8:1]/5^8[8:1],,,,15,{4}4^1[8:1]/8^5[8:1],
{4},48,67,15,
{4}23,4qq5[8:3]/8qq1[8:3],{2},
{8},5-8[8:1],6,7,,1-4[8:1],2,3,
{8},5-1[8:1],6,7,{4}8-4[8:1],3,

{4}12,{8}56,56,{4}78,{8}34,3pp6[8:3]/4,
{4},8,1,4qq1[2:1]/5pp8[2:1],
{2},{4},{8}18,27,
{8}36,4-1[8:1]/5-8[8:1],,,,27,{4}27,
{8}36,36,{16}4,5,4,5,{8}2,2,{16}6,5,6,5,
{8}8,8,{16}3,4,3,4,{8}1^4[8:1]*^6[8:1],46,{4},
{8}5,5h[4:1],,1h[4:1],,8,27,36,
{16}4,5,3,6,4,5,2,7,4,5,1,8,{4}2b/7b,

{8}3,34,,25,,18,,47,
{8}6,56,,47,,18,,25,
{16}3,4,{8}3,{16}6,5,{8}6,{16}2,4,{8}3,{16}7,5,{8}6,
{16}2,3,4,5,6,7,{8}18,{16}2,7,3,6,{4}4h[4:1],
{8}5,56,,47,,18,,25,
{8}3,34,,25,,18,,47,
{16}6,5,{8}6,{16}3,4,{8}3,{16}7,5,{8}6,{16}2,4,{8}3,
{16}7,6,5,4,3,2,{8}18,{16}7,2,6,3,{4}5h[4:1],

{8}2,12,,38,,45,,16,
{8}7,78,,16,,45,,38,
{16}2,1,{8}2,{16}7,8,{8}7,{16}3,8,{8}3,{16}6,1,{8}6,
{16}3,2,1,8,7,6,{8}45,{16}3,6,2,7,{4}1h[4:1],
{8}8,78,,16,,45,,38,
{8}2,12,,38,,45,,16,
{16}7,8,{8}7,{16}2,1,{8}2,{16}6,1,{8}6,{16}3,8,{8}3,
{16}6,7,8,1,2,3,4,5,{2}6^3[8:1],

{16}13,,,17,,,{8}57,{4}6^3[4:1],3pp6[2:1],
{1},
{16}68,,,28,,,{8}24,{4}3^6[4:1],6qq3[2:1],
{1},
{16}24,,,46,,,{8}68,{4}7^2[4:1],2qq7[2:1],
{1},
{16}57,,,35,,,{8}13,{4}2^7[4:1],7pp2[2:1],
{1},

{2}7h[2:1],5h[2:1],
{2}4h[2:1],{4}3,17,
{2}2h[2:1],4h[2:1],
{2}5h[2:1],{4}6,28,
{4}1>5[4:1],5<1[4:1],1V35[4:1],5V71[4:1],
{4}1s5[4:1],6,{16}7,,,1,{8}8,27,
{8}34,34,56,56,24,24,57,57,
{16}1,8,2,7,1,8,3,6,1,8,4,5,{4}2b/7b,

{4}1V35[16:3],{8}6v8[8:1],6,,1,{4}27,
{4}8V64[16:3],{8}3v1[8:1],3,,8,{4}27,
{8}3,45,6,45,2,18,7,18,
{2}2V41[4:1]/7V58[4:1],{8},27,{4}45,
{4}2-7[8:1],{8}6,6-3[8:1],,1,2,3,
{4}4-1[8:1],{8}8,8-5[8:1],,4,{4}4-8[8:1],
{2}8^3[8:1]*^5[8:1],{8}4,5,{4}36,
{2}4qq1[8:3]/5pp8[8:3],{4},27,

{4}8V64[16:3],{8}3v1[8:1],3,,8,{4}27,
{4}1V35[16:3],{8}6v8[8:1],6,,1,{4}27,
{8}6,45,3,45,7,18,2,18,
{2}2V48[4:1]/7V51[4:1],{8},27,{4}45,
{4}7^2[8:1],{8}3,3^6[8:1],,8,7,6,
{4}5^8[8:1],{8}1,1^4[8:1],,5,{4}5-1[8:1],
{2}1^4[8:1]*^6[8:1],{8}5,4,{4}36,
{2}1^4[8:1]/8^5[8:1],4qq1[2:1]/5pp8[2:1],

{2},27,
{16}38,,,16,,,{8}27,{2}45,
{16}23,,,67,,,{8}15,{2}4^1[8:1]/8^5[8:1],
{1}1pp4[2:1]/5pp8[2:1],
{16}25,,,47,,,{8}36,{2}4-1[8:1]/5-8[8:1],
{16}38,,,16,,,{8}27,{2}1-4[8:1]/8-5[8:1],
{16}4,5,3,6,2,7,1,8,2,7,3,6,4,5,3,6,
{8}2,2pp3[16:3],,6pp7[16:3],{2},
{16}48,37,26,15,,,15,26,37,48,,,27,36,{8}45,
{24}1,2,3,4,5,6,7,8,1,2,3,4,{2}5h[4:5],
{2},{4},1,
E

Re:MASTER

(172){16}15,,,48,,,
{2} 1v3[8:1]/5v7[8:1],4v2[8:1]/8v6[8:1],
{16} 1,7,3,5,4,6,2,8,,,48,,,15,,,
{2} 4v2[8:1]/8v6[8:1],1v3[8:1]/5v7[8:1],
{16} 6,4,8,2,7,1,5,3,4,,26,,,37,,,
{2} 2v4[8:1]/6v8[8:1],3v1[8:1]/7v5[8:1],
{16} 2,4,8,6,5,7,3,1,
{8} 2,,48,26,,15,37,,26,,
{16} 5,,5,5,5,,5-1[8:1],5,5,,
{4} 5b,1h[8:1]/5h[8:1],2h[8:1]/6h[8:1],1h[8:1]/5h[8:1],2h[8:1]/6h[8:1],
4h[8:1]/8h[8:1],3h[8:1]/7h[8:1],4h[8:1]/8h[8:1],3qq5[2:1]/7qq1[2:1],37,,,
{8} 48,37,26,1V35[4:1]/5V71[4:1],,1v7[4:1]/5v3[4:1],,,,,
{4} 4h[8:1]/8h[8:1],3h[8:1]/7h[8:1],4h[8:1]/8h[8:1],3h[8:1]/7h[8:1],
1h[8:1]/5h[8:1],2h[8:1]/6h[8:1],1h[8:1]/5h[8:1],2h[8:1]/6h[8:1],
{8} ,3>1[8:1]/7<5[8:1],37,37,,2>4[8:1]/6<8[8:1],26,26,,37,26,37,1b/5b,,4b/8b,,
26,4,37,5,26,4,37,6,15,3,48,6,15,3,
{4} 4qq1[2:1]/8qq5[2:1],48,,,
{8} 15,26,37,4V28[4:1]/8V64[4:1],,4v6[4:1]/8v2[4:1],,,,,
37,5,26,4,37,5,26,3,48,6,15,3,48,6,15,3,,2>4[8:1]/6<8[8:1],26,26,,3>1[8:1]/7<5[8:1],37,37,,26,37,26,
{4} 4b/8b,1b/5b,2h[8:1]/6h[8:1],4h[8:1]/8h[8:1],3h[8:1]/7h[8:1],1h[8:1]/5h[8:1],
2h[8:1]/6h[8:1],4h[8:1]/8h[8:1],3h[8:1]/7h[8:1],1pp4[2:1]/5pp8[2:1],15,,,
{8} 48,37,26,1V35[4:1]/5V71[4:1],,1v7[4:1]/5v3[4:1],,,,,
{16} 48,,48,,7,3,6,,15,,15,,2,6,3,,
48,,48,,7,3,6,2,15,,15,,2,6,3,7,
4,8,3,7,4,8,3,7,1,5,2,6,1,5,2,6,
3,7,4,8,3,7,2,6,
{32} 1-5[16:1],8,7,6,5,4,3,2,
{4} 1b,
{16} 37,,26,26,,,1h[16:1]/5h[16:1],,,,37,37,,,4h[16:1]/8h[16:1],,,,15,15,,,3h[16:1]/7h[16:1],,,,48,48,,,26,,
3,4,5,7,8,1,4,3,2,8,7,6,1,2,3,5,6,7,2,1,8,6,5,4,7,8,1,2,3b/7b,,,,
26,,37,37,,,4h[16:1]/8h[16:1],,,,26,26,,,1h[16:1]/5h[16:1],,,,48,48,,,2h[16:1]/6h[16:1],,,,15,15,,,37,,
6,5,4,2,1,8,5,6,7,1,2,3,8,7,6,4,3,2,7,8,1,3,4,5,2,1,8,7,2b/6b,,,,
37,,15,15,,,3h[16:1]/7h[16:1],,,,48,48,,,2h[16:1]/6h[16:1],,,,37,37,,,1h[16:1]/5h[16:1],,,,26,26,,,48,,
2,1,8,6,5,4,1,2,3,5,6,7,4,3,2,8,7,6,3,4,5,7,8,1,6,5,4,3,2b/6b,,,,
26,,48,48,,,2h[16:1]/6h[16:1],,,,15,15,,,3h[16:1]/7h[16:1],,,,26,26,,,4h[16:1]/8h[16:1],,,,37,37,,,15,,
7,8,1,3,4,5,8,7,6,4,3,2,5,6,7,1,2,3,6,5,4,2,1,8,3,4,5,6,3b/7b,,,,
{1} 4>5[1:1],5>7[1:1],7<2[1:1],2<7[8:5],5<4[1:1],4<2[1:1],2>7[1:1],7>2[2:1],
8V61[8:13]/4V25[8:13],,1V38[8:13]/5V74[8:13],,
{4} 1,2,3,4,5,6,7,8,
{8} 1,8,7,6,5,4,3,2,
{16} 1,2,3,4,5,6,7,8,
{32} 1-5[16:1],8,7,6,5,4,3,2,
{8} 1b,,
{16} 37,,46,46,,,2h[16:1]/8h[16:1],,,,37,37,,,4h[16:1]/6h[16:1],,,,37,37,,,2h[16:1]/8h[16:1],,,,
{8} 46,28,37,28,46,28,37,15,37,28,46,28,37,2-6[8:1]/8-4[8:1],4qq5[4:1]/6pp5[4:1],,,,,
{16} 26,,17,17,,,3h[16:1]/5h[16:1],,,,26,26,,,1h[16:1]/7h[16:1],,,,26,26,,,3h[16:1]/5h[16:1],,,,
{8} 17,35,26,35,17,35,26,48,26,35,17,35,26,3-7[8:1]/5-1[8:1],7qq8[4:1]/1pp8[4:1],,,,,
{16} 16,,78,78,,,2h[16:1]/5h[16:1],,,,16,16,,,3h[16:1]/4h[16:1],,,,12,12,,,4h[16:1]/7h[16:1],,,,
{8} 36,27,45,18,36,27,45,27,36,18,45,2-6[8:1]/7-3[8:1],3V15[4:1]/6V84[4:1],,,,,,,
{16} 23,,67,67,,,5h[16:1]/8h[16:1],,,,23,23,,,1h[16:1]/4h[16:1],,,,67,67,,,5h[16:1]/8h[16:1],,,,
{8} 36,45,18,36,27,45,45,27,36,18,45,
{1} 3qq5[2:1]/6pp4[2:1],
{16} 2h[4:1]/6h[4:1],,,,,,26,37,4h[4:1]/8h[4:1],,,,,,,,3h[4:1]/7h[4:1],,,,,,37,26,1h[4:1]/5h[4:1],,,,,,,,
2h[4:1]/6h[4:1],,,,,,26,37,4h[4:1]/8h[4:1],,,,,,,,6,8,4,2,1,3,7,5,6h[4:1],,,,,,,,
3h[4:1]/7h[4:1],,,,,,37,48,1h[4:1]/5h[4:1],,,,,,,,2h[4:1]/6h[4:1],,,,,,26,15,4h[4:1]/8h[4:1],,,,,,,,
3,1,5,7,2,4,8,6,5,7,3,1,8,6,2,4,3,,26,26,,,48,48,,,37,37,,,15,,
26,37,48,1b/5b,,,37,26,15,4b/8b,,,26,37,48,15,48,37,26,15,
{24} 48,15,26,37,48,1h[24:31]/5h[24:31],
{2} ,,,,,
E

  • MASTERのところにRe:MASTER譜面が入っていたため、消去させていただきました。MASTERを持っているよという方、再度アップロードをお願いいたします。 -- 嵐雅 (2021-05-10 19:59:52)
名前:
コメント:

タグ:

+ タグ編集
  • タグ:
最終更新:2026年10月04日 18:08