BASIC
ADVANCED
EXPERT
(200)
{4}3,24,3,24, 3^6[4:1],,,8b,
6,57,6,57,B6,C,B1/B2,,
3,24,3,24,6,57,6,57,
B4,B5,E2/E3,E7/E8,
{8}1,8,1,,2b/7b,,,,
{16}1h[16:3],,,7h[16:3],,,8,,{8}6,5,6,,
{16}8h[16:3],,,2h[16:3],,,1,,{8}3,4,3,,
{16}3h[16:3],,,7h[16:3],,,1,,{8}8,1,8,,
{4}B6/B7,B2/B3,B1/B8/C,,
{16}4h[16:3],,,6h[16:3],,,5,,{8}7,8,7,,
{16}5h[16:3],,,3h[16:3],,,4,,{8}2,1,2,,
{16}2h[16:3],,,6h[16:3],,,4,,{8}5,4,5,,
2,7,1-5[8:1],8,{2},
{2}7h[2:1],6h[2:1],5h[2:1],4,
3h[2:1],5h[2:1],6h[2:1],{4}7,8b,
{1}B3/B6/Chf[2:1],
{4}8-4[8:1],1,{8}3,3,5,,
6,5,6,,{4}56,47,
1-5[8:1],8,{8}6,6,4,,
3,2,3,,{4}2h[4:1]/5h[4:1],,
5-1[8:1],4,{8}2,2,8,,
7,8,7,,{4}78,26,
4h[4:1]/5h[4:1],,45,45,
{8}1,8,1,,2b/7b,,,,
{4}B4,B5,B1/B2,B7/B8,
56,34,78,1b,
B8,B1,B5/B6,B3/B4,
12,78,5h[4:1]/6h[4:1],,
B4/E5,B6/E7,B2/E3,B8/E1,
B1/E2,B6/E7,B3/E4,B5/E5,
{1}Ch[2:3],,
8z4[2:1],1s5[2:1],8<1[4:5],,
{2}3hx[4:1]/4hx[4:1],{6}3x/5x,4x/6x,5x/7x,
{2}5hx[4:1]/7hx[4:1],{6}4x/7x,3x/6x,2x/5x,
{2}2hx[4:1]/5hx[4:1],4hx[4:1]/7hx[4:1],
{8}18,,4,5,4,,2b/7b,,
{1}Ch[2:1],
{4}1-5[8:1],8-6[8:1],2-4[8:1],,
8-4[8:1],1-3[8:1],7-5[8:1],,
4-2[8:1],6-8[8:1],5-1[8:1],,
3qq8[2:1]/4pp7[2:1],,,,
2-6[8:1],1-7[8:1],3-5[8:1],,
7-3[8:1],8-2[8:1],6-4[8:1],,
3-1[8:1],5-7[8:1],4-8[8:1],,
5qq2[2:1]/6pp1[2:1],,,,
B8,B2,B5/B6,E3/E4,
B1,B7,B3/B4,E6/E7,
B8,B2,B5/B6,E3/E4,
Ch[2:1],,,,
B5,B3,B7/B8,E2/E3,
B4,B6,B1/B2,E7/E8,
B5,B3,B7/B8,E2/E3,
Cf,,,,
3h[4:3]/5,5,4,4,
35,46,57,8b,
4/6h[4:3],4,5,5,
46,35,24,{8}1x,1x,
{4}1x^4[8:1],5,5x^8[8:1],1,
1x^4[8:1],5,5x^8[8:1],1,
1x^4[8:1],5x^8[8:1],1x^4[8:1],5x^8[8:1],
1x^4[8:1],5x^8[8:1],1x,5x,
{8}3,4,35,,6,5,46,,
{4}45,36,27,18,
{1}1h[2:1]/8h[2:3],2h[4:5],
{2}3h[4:3],4h[1:1],5h[2:1],{4},1b,
{1}2h[2:1]/4h[2:1],5h[2:1]/7h[2:1],
{4}1h[4:1],3,8h[4:1],6,
{8}18,,4,5,4,,2b/7b,,
{1}Chf[2:5],
{4}8x,8x,7x,7x,8x,8x,8b,,
{16}7h[16:3],,,8,,,7,,{8}6-1[8:1],6,4,4,
{16}2h[16:3],,,1,,,2,,{8}3-8[8:1],3,5,5,
{16}7h[16:3],,,8,,,7,,{8}6-1[8:1],6,4,4,
2,2,8,8,4,4,56,,
{16}6h[16:3],,,5,,,6,,{8}7-4[8:1],7,1,1,
{16}3h[16:3],,,4,,,3,,{8}2-5[8:1],2,8,8,
{16}6h[16:3],,,5,,,6,,{8}7-4[8:1],7,1,1,
2,2,6,6,4,5,2b/7b,,
{16}3h[16:3],,,4,,,3,,{8}2V48[8:1],2,5,5,
{16}6h[16:3],,,5,,,6,,{8}7V51[8:1],7,4,4,
{16}3h[16:3],,,4,,,3,,{8}2V48[8:1],2,5,5,
6,6,2,2,8,8,12,,
{16}2h[16:3],,,1,,,2,,{8}3V15[8:1],3,6,6,
{16}7h[16:3],,,8,,,7,,{8}6V84[8:1],6,2,2,
{16}2h[16:3],,,1,,,2,,{8}3V15[8:1],3,6,6,
8,8,2,2,5,4,2b/7b,,
{1}B6,B2,B2,
{2}E1,C,
B5/B6,B1,B3/B4,B8,B4/B5/C,E1,
{4}E2/E8,E3/E7,E4/E6,E5,
{1}B2/B7/Ch[1:3],,,,,,
E
MASTER
(200)
{8}4,5,3,6,4,5,4,5,E4,E6,E2,E8,C,,8x,,
6,5,7,4,6,5,6,5,E7,E5,E1,E3,C,,1x,,
3,4,2,5,3,4,3,4,{4}3h[4:1],4h[4:1],5h[4:1],6,
B6/B7/E8,B2/B3/E4,B1/B8/E2/E8,B4/B5/E4/E6,
{8}E1,C,E5,,E3/E7/C,,,,
28,3,45,3,2-5[8:1]/4,,8x,,
17,6,45,6,5/7-4[8:1],,1x,,
28,3,45,6,78,1,28,3,
{4}2x-5[8:1]/4x,7>3[8:1],4h[4:1],,
{8}17,6,45,6,5/7-4[8:1],,1x,,
28,3,45,3,2-5[8:1]/4,,8x,,
17,6,45,3,2/8-3[8:1]*-5[8:1],,8x,,
2-5[8:1],7-4[8:1],2x,7x,1x,2b/7b,,,
3h[8:3],,4,5h[8:3],,4,3h[8:3],,
4,5h[8:3],,4,3h[4:1],,C,,
6h[8:3],,5,4h[8:3],,5,6h[8:3],,
5,4h[8:3],,5,6h[4:1],,C,,
{4}1>5[4:1],5<1[4:1],1,C,
{8}28,3,45,3,2-5[8:1]*-8[8:1]/4,,2x,,
17,6,45,6,5/7-1[8:1]*-4[8:1],,7x,,
28,3,45,6,17,2,13,48,
{4}5x/7x-3[8:1],2x<6[8:1]/7x,2x/5h[4:1],,
{8}17,6,45,3,2/8w4[8:1],,8x,,
17,26,{16}3,4,3,4,{8},25,18,27,
{16}1h[16:3],,,8,{8}1,18,2-5[8:1]/7-4[8:1],,2x/7x,,
{8}E1,C,E5,,E3/E7/Cf,,,,
E2,E8,E3,E7,B5/B6/E6,,E4/E8/C,,
{16}38,,2,1,2,,38,,{4}3/8h[4:1],1b,
{8}E8,E2,E7,E3,B3/B4/E4,,E2/E6/C,,
{16}7x,8x,,8x,7x,,16,,16,,8x,7x,6x,5x,4x,3x,
{4}2xh[8:1]/5xh[8:1],2xh[8:1]/4xh[8:1],2h[8:1]/3h[8:1],12,
1h[8:1]/2h[8:1],3h[8:1]/8h[8:1],4h[8:1]/7h[8:1],5h[8:1]/6h[8:1],
{8}7,7,5,5,4,4,2,2,
{16}18,,18,,2x/7x,,6,5,,4x/7x,,3,4,,2x/5x,,
{1}1>6[2:1],8<3[2:1],
{4}1pp5[8:7],8,8,7,7[4:3],,,,
{2}4x/8x<3[2:1],{16}3,,,2,,,1,,
{2}1x>6[2:1],{16}6,,,7,,,8,,
{4}8qq4[8:7],1,1,2,2,{8}2,3,4w8[8:1],,,,
{1},
{16}45,,3,,2,,1,,7,8,7,,6,,5,,
45,,6,,7,,8,,2,1,2,,3,,4,,
45,,3,,2,,1,,7,8,7,,6,,5,,
3,4,3,,2,1,2,,{8}12,38,47,6,
{16}45,,6,,7,,8,,2,1,2,,3,,4,,
45,,3,,2,,1,,7,8,7,,6,,5,,45,,6,,7,,8,,2,1,2,,3,,4,,
6,5,6,,7,8,7,,{8}78,16,25,3,
{16}5h[8:1],,6h[8:1],,7h[8:1],,8,,6,5,7,,3,4,2,,
8h[8:1],,1h[8:1],,2h[8:1],,3,,6,5,7,,3,4,2,,
5h[8:1],,6h[8:1],,7h[8:1],,8,,6,5,7,,3,4,2,,
7,8,7,8,7,8,7h[8:1],,{8}8,17,26,35,
{16}2h[8:1],,4h[8:1],,5h[8:1],,7,,2,1,3,,7,8,6,,
3h[8:1],,1h[8:1],,8h[8:1],,6,,2,1,3,,7,8,6,,
2h[8:1],,4h[8:1],,5h[8:1],,7,,2,1,3,,{8}1x/8x,2b/7b,
,15,,5x/6x,4x/7x,3x/8x,1b/2b,,
{4}4h[4:3]/5h[4:3],,,,
E6/E7,E3/E4,E5/C,1b,
{8}3,4,5,6,36,3h[4:1]/6h[4:1],,,
{4}E3/E4,E6/E7,{8}E5/C,8b,8b,,
B2,B7,B4,B5,B1,B8,B3/E3,B6,
E2,E7,E4,E5,E1,E8,B3/E3,E6,
B2,B7,B4/E4,B5,B1,B8,B3/E4,B6,
B2/E3,E8,B4/E5,E6,B1/E2,B7,B3/E4,B6,
{2}Ch[4:1],{16}1,8,1,8,2x/7x,,,,
56,,56,,4x/7x,,2,1,,3x/8x,,7,8,,1x/6x,,
{1}8<3[2:1],1>6[2:1],
{4}8qq4[8:7],1,1,2,2[4:3],,,8b,
{2}5x/1x>6[2:1],{16}6,,,7,,,8,,
{2}8x<3[2:1],{16}3,,,2,,,1,,
{4}1pp5[8:7],8,8,7,7,{8}7,6,4x-1[8:1]/5x-8[8:1],,,,
{16}2b/7b,,,,4,5,4,5,3,6,3,6,3b,,,,
{4}B3f/B4f/Cf,B1f/B2f/Cf,B7f/B8f/Cf,B5f/B6f/Cf,
{32}1x,2x,3x,4x,5x,6x,7x,8x,1x,2x,3x,4x,5x,6x,7x,8x,{4}1xw5[8:1],1b,
{16}2h[8:1]/8h[8:1],,,3h[8:1]/4h[8:1],,,17,,{8}8-4[8:1],3-6[8:1],8,3,
{16}1h[8:1],,,5xh[8:1]/7xh[8:1],,,28,,{8}1-5[8:1],6-3[8:1],1,6,
{16}8h[8:1],,,2xh[8:1]/4xh[8:1],,,17,,{8}8-4[8:1],3-6[8:1],8,3,
{4}1^6[8:1],1^4[8:1]/5,1/5w1[8:1],5x,
{16}3h[8:1]/7h[8:1],,,5h[8:1]/6h[8:1],,,28,,{8}1-5[8:1],6^3[8:1],1,6,
{16}8h[8:1],,,2xh[8:1]/4xh[8:1],,,17,,{8}8-4[8:1],3^6[8:1],8,3,
{16}1h[8:1],,,5xh[8:1]/7xh[8:1],,,28,,{8}1-5[8:1],6^3[8:1],1,6,
{16}8,,8,,1x/7x,,2,1,,3x/8x,,5,4,,3b/6b,,
{16}1h[8:1]/7h[8:1],,,5h[8:1]/6h[8:1],,,28,,{8}7-4[8:1],3-8[8:1],7,3,
{16}5h[8:1],,,2h[8:1]/4h[8:1],,,17,,{8}2-5[8:1],6-1[8:1],2,6,
{16}4h[8:1],,,5h[8:1]/7h[8:1],,,28,,{8}7-4[8:1],3-8[8:1],7,3,
{4}5^8[8:1],5^2[8:1]/1,1w5[8:1]/5,1x,
{16}2h[8:1]/6h[8:1],,,3h[8:1]/4h[8:1],,,17,,{8}8-5[8:1],3^8[8:1],8,3,
{16}4h[8:1],,,3h[8:1]/5h[8:1],,,28,,{8}1-4[8:1],6^1[8:1],1,6,
{16}5h[8:1],,,4h[8:1]/6h[8:1],,,17,,{8}8-5[8:1],3^8[8:1],8,3,
{16}4,,4,,3x/5x,,7,8,,1x/6x,,2,1,,3b/8b,,
{1}1>5[2:1]/8,5/8>5[2:1],1>5[2:1]/5,
{4}5/8<3[2:1],4,3,2,
{1}1<4[2:1],4>5[2:1]/8,
{16}8,7,6,5,1,2,3,4,7,6,5,4,2,1,2,1,
{32}2x,3x,4x,5x,,,,,8x,7x,6x,5x,,,,,2x,3x,4x,5x,6x,7x,8x,1x,2x,3x,4x,5x,6x,7x,8x,1x,
{1}2x/Ch[1:3],,,,,,,
E
Re:MASTER
[2026,02,10]一部訂正しました。 りゅう
最終更新:2026年04月09日 19:42