アットウィキロゴ

Calamity Fortune〈スタンダード〉

アーティスト LeaF

BPM EASY BASIC ADVANCED EXPERT MASTER Re:MASTER
200 3 7 9+ 12+ 14 -

EXPERT MASTER Re:MASTER
譜面制作者 玉子豆腐 小鳥遊さん -

EASY


BASIC

(200){4}
1,,1,,1,1,1,1b,
8,,8,,8,8,8,1/8,
1,,1,,1/8,1/8,1/8,1/8,1-4[4:3]/8-5[4:3],,,,,,,,
4/5,,4/5,,4,4,3,3,1/2,,1/2,,8,8,7,7,
5/6,,5/6,,4,4,3,3,1/2,,1/2,,1,1,8,8,
7-2[4:3],,,,,,,3,
3-6[4:3],,,,,,,8b,
1h[4:3]/8h[4:3],,,,
7/8,,7/8,,7,7,8,8,1/2,,1/2,,3,3,4,4,
5/6,,5/6,,7,7,8,8,1h[4:3]/8h[4:3],,,,1/8,1/8,2/7,,
3/4,,3/4,,5,4,5,4b,
5/6,,5/6,,4h[2:1]/7h[2:1],,,,
7/8,,7/8,,1,1,2,2,
{1}3-8[4:3],,8,7,6,5,
{4}3/4,,3/4,,3/4,,3/4,,1/2,,1/2,,1/2,1/2,1/2,1b/2b,,,,,
{1}
1-6[4:3]/2-5[4:3],,
7-4[4:3]/8-3[4:3],,
5-2[4:3]/6-1[4:3],,
3-8[4:3]/4-7[4:3],,
{2}1,1,1,1,2,2,2,2,
{4}3,3,3,,4,4,4,,
{1}5-8[4:3],,
{4}
8h[4:1],,1h[4:1],,8,8,8,8b,
1,1,2,2,1,1,1,1/8,
8,8,7,7,6,6,5,5,
4,4,3,3,2,2,1,1,
1/8,,,,8,1,8,1b/8b,
{1}
8^5[4:3],,
4^1[4:3],
{4},,,8b,
1/2,,3/4,,5/6,,7/8,,
8,7,6,5,4,3,2,1,
{1}1b/8b,1^4[4:3]/8^5[4:3],,
{4}
3,4,3,3,6,5,6,6,4,5,4,4,3/4,4/5,5/6,,
6,5,6,6,3,4,3,3,5,4,5,5,5/6,4/5,3/4,,
2,1,2,2,7,8,7,7,1,8,1,1,1/2,1/8,7/8,,
7,8,7,7,2,1,2,2,8,1,8,8,1/8,2/7,3/6,4/5,
{1}
4-1[2:3],,,,
5-8[2:3],,,,
{1}1b,,,,,,E

ADVANCED

(200){4}
3,4,5,,6h[2:1],,5,4/7,6,5,4,,3h[4:1],4,3/4,,
5,4,3/6,3/6,4,5,3/6,,2h[2:1]/7h[2:1],,,,{8}1,1,{4}8,2b/7b,,
3,3/4,6,5/6,4/5,4/5,3/6,,2,1/2,7,7/8,1/8,1/8,2/7,,
6,5/6,3,3/4,4/5,4/5,3/6,,6,7,8,1/2,3,2,1/8,,
{2}7h[2:1],8,2h[2:1],1,3h[2:1],4,
{4}6,5,5/6,5-2[2:1]/6-1[2:1],,,,,
3h[4:1],4,2/5,,6h[4:1],5,4/7,,3h[4:1],4,2/5,,3,4,5,6,
7h[4:1],8,1/6,,2h[4:1],1,3/8,,2h[2:1]/7h[2:1],,,,{8}8,8,{4}1,2b/7b,,
2,2,3,3,3h[2:1]/4h[2:1],,,2/5,6,6,7,7,8,1,2/7,,
6,6,5,5,3h[4:1]/4h[4:1],,5h[4:1]/6h[4:1],,
3,3,4,4<8[4:3],,,,,
{1}1h[1:1],2h[1:1],3h[1:1],{2}4,4/5,
{1}5h[1:1],6h[1:1],7h[1:1],{2}8,1/8,1-4[2:1]/8-5[2:1],,
{1}7-4[2:1],2-5[2:1],8-4[2:1],{4}3,3,2/4,,
{1}3-8[2:1],6-1[2:1],4-8[2:1],{4}7,7,6/8,,
{1}7^4[2:1],2^5[2:1],8^5[2:1],{4}4,4,3/5,,
{1}5-2[2:1]/6-1[2:1],3-8[2:1]/4-7[2:1],4qq1[4:5]/5pp8[4:5],,
2h[2:1]/7h[2:1],
{4}1/8,1/8,1/8,2/7,3,3,6,6,4/5,4/5,4/5,3/6,
{1}3h[2:1]/4h[2:1],5h[2:1]/6h[2:1],
2h[2:1]/4h[2:1],5h[2:1]/7h[2:1],1^4[2:1]/8^5[2:1],
{4}3/6,2/7,1b/8b,,
{1}8h[1:1],7h[1:1],6h[1:1],{4}5h[2:1],,6,5/6,
{1}4h[1:1]/5,3h[1:1],2h[1:1],{4}1,,2/7,2>7[4:3]/7,,,,,
1/8,1/8,2/7,2/7,3/6,3/6,4/5,2b/7b,
3,2/4,6,5/7,4/6,3/7,2/8,,
6,5/7,3,2/4,3/5,2/6,1/7,,
6,5/7,3,2/4,3/5,2/6,1/7,,
5/6,4/7,3/8,1/2,3/4,2/5,1/6,7b/8b,
1/8,1/2,1/8,7/8,5/6,3/4,2/5,,
4/5,5/6,4/5,3/4,1/2,7/8,1/6,,
1/8,7/8,1/8,1/2,1/8,6/8,1/8,1/3,
{8}2,2,2,,7,7,7,,1,1,1,,1/8,1/8,1/8,,
{1}1pp4[4:5]/8,,5pp8[4:5],,
2h[2:1]/7h[2:1],3h[2:1]/6h[2:1],
4qq1[4:5]/5pp8[4:5],,
{1}2b/7b,,,,,,E

EXPERT

(200.0){1},
{4}6h[4:1],5,7h[4:1],5,
{8}7/8,,1/8,,1,8,2b/7b,,
{4}3h[4:1],4,2h[4:1],4,
{4}1/2,1^4[4:1]/8q5[4:1],,,
{4}6h[4:1],5,7h[4:1],5,
{4}2h[4:1],4,3h[4:1],4,
{4}3/4,4-1[16:3]/5-8[16:3],,,
{8}1/8,1/8,1/8,,2b/7b,,,,
{4}3/4^7[16:3],2,1,7/8,
{4}6/5^2[16:3],7,8,1/2,
{4}3/4^7[16:3],2,1,1/8,
{4}2h[4:1],4h[4:1],6h[4:1],8,
{4}7/8^3[16:3],6,5,3/4,
{4}2/1^6[16:3],3,4,5/6,
{4}7/8^3[16:3],6,5,4/5,
{4}3h[4:1],1-4[16:3]*-6[16:3],,,
{4}2h[4:1],4,5h[4:1],4,
{4}2h[4:1],4,1^4[16:3],,
{4}7h[4:1],5,4h[4:1],5,
{4}7h[4:1],5,8,1b,
{4}8-5[16:3],3q4[8:3],,,
{8}2/4,,6/8,,2,1,3/8,,
{8}5/7,,1/3,,7,8,1/6,,
{4}4/3-1[8:1],8,4/3-1[8:1],8,
{4}4/7-5[8:1],1-3[8:1],8-4[8:1],,
{8}2/4,,6/8,,2,1,3/8,,
{4}4/6-8[8:1],2,4/6-8[8:1],2,
{4}1/2,2-5[16:3]/3-7[16:3],,,
{8}1/8,1/8,1/8,,2b/7b,,,,
{4}7h[4:1],5,4h[4:1],5,
{8}5,5,5-8[16:3],,,,1b,,
{4}2h[4:1],4,5h[4:1],4,
{4}1/8,7/2>8[8:3],,,
{4}6h[4:1],5,3h[4:1],5,
{4}8/6h[4:1],2h[4:1],5h[4:1],4h[4:1],
{4}5h[4:1],6h[4:1],7h[4:1],8h[4:1],
{1}1>7[2:1]*q8[2:1],
{1}1h[1:1],
{1}8h[1:1],
{1}7h[1:1],
{1}6h[1:1],
{1}5V31[8:5],
{1}8V64[8:5],
{2}3-6[16:3],7-2[16:3],
{8}3,,4/5,4/5,3/6,,1b^4[16:5]/8b^5[16:5],,
{4},,,2/7,
{4}2/1-7[8:1],2-4[8:1],1-6[8:1],2-5[8:1],
{4}8-6[8:1],1-3[8:1],8-5[8:1],1-4[8:1],
{4}7-5[8:1],8-2[8:1],7-4[8:1],8-3[8:1],
{4}7^4[16:3],3,2,1/3,
{4}7/8-2[8:1],7-5[8:1],8-3[8:1],7-4[8:1],
{4}1-3[8:1],8-6[8:1],1-4[8:1],8-5[8:1],
{4}2-4[8:1],1-7[8:1],2-5[8:1],1-6[8:1],
{4}2^5[16:3],6,7/8,1/3,
{4}3/4-6[8:1],3-1[8:1],4-7[8:1],3-8[8:1],
{4}5-7[8:1],4-2[8:1],5-8[8:1],4-1[8:1],
{4}6-8[8:1],5-3[8:1],6-1[8:1],5-2[8:1],
{8}6^1[16:3],,2,,3,3,2/4,,
{4}6/5-3[8:1],6-8[8:1],5-2[8:1],6-1[8:1],
{4}4-2[8:1],5-7[8:1],4-1[8:1],5-8[8:1],
{8}3-1[8:1],,4-6[8:1],,3-8[8:1],,4,4,
{8},2V46[8:3]/6V82[8:3],,,,,,,
{4}6h[4:1],4h[4:1],5h[4:1],3-8[8:1],
{4}4-7[8:1],3-8[8:1],4,7b,
{8}3,3,5,5,4,4,6-1[8:1],,
{8}5-2[8:1],,6-1[8:1],,5,4b,4b,,
{4}3,2/4,3,3/4,
{4}6,5/7,6,5/6,
{4}3,3/4,3,4/5,
{4}6,5/6,6,4/5-2[16:3]*-8[16:3],
{8},,,,1,8,2/7,,
{8}3,5,4,6,5,,2/7,,
{2}8h[2:1],7h[2:1],
{2}6h[2:1],5h[2:1],
{2}4h[2:1],3h[2:1],
{4}2h[2:1],,1,1b,
{1}2-6[8:3]*V46[8:3],
{1}7qq7[2:1]/8pp8[2:1],
{2}1/2-5[8:1],8/7-4[8:1],
{8}1,,2/7,3/6,4/5,,8,,
{1}1b^4[4:1]/5b^8[4:1],
{2}2^5[8:1]/6^1[8:1],2^5[8:1]/6^1[8:1],
{4}2^5[8:1]/6^1[8:1],,2/6,4b/8b,
{16}3h[16:3],,,4-8[16:3],,,8^3[16:3]*^5[16:3],,8,,,,,,,,
{16}6h[16:3],,,5-1[16:3],,,1^4[16:3]*^6[16:3],,1,,,,,,,,
{16}3h[16:3],,,4-8[16:3],,,8^3[16:3]*^5[16:3],,8,,,,,,,,
{4}6,3-8[8:1]/7-4[8:1],,2b/6b,
{16}3h[16:3],,,4-8[16:3],,,8pp2[16:3]*qq6[16:3],,8,,,,,,,,
{16}6h[16:3],,,5-1[16:3],,,1pp3[16:3]*qq7[16:3],,1,,,,,,,,
{16}3h[16:3],,,4-8[16:3],,,8pp2[16:3]*qq6[16:3],,8,,,,,,,,
{4}6^1[8:1],2^5[8:1],6^1[8:1],2,
{16}3h[16:3],,,4<8[16:3],,,8^3[16:3]*q4[16:3],,8,,,,,,,,
{16}6h[16:3],,,5>1[16:3],,,1p5[16:3]*^6[16:3],,1,,,,,,,,
{16}3h[16:3],,,4<8[16:3],,,8^3[16:3]*q4[16:3],,8,,,,,,,,
{4}6,3-8[8:1]/7-4[8:1],,2b/6b,
{16}3h[16:3],,,4<8[16:3],,,8p2[16:3]*v2[16:3],,8,,,,,,,,
{16}6h[16:3],,,5>1[16:3],,,1q7[16:3]*v7[16:3],,1,,,,,,,,
{16}3h[16:3],,,4<8[16:3],,,8p2[16:3]*v2[16:3],,8,,,,,,,,
{8}7-3[8:1],7,8-4[8:1],8,1-5[8:1],1,2-6[8:1],2,
{1}7^4[8:5],
{1}3^8[8:5],
{1}7^4[8:5],
{4}3,2,1,8,
{1}7^2[8:5],
{1}3^6[8:5],
{1}7pp3[4:5]*qq3[4:5],,
{8}8b/1b>8[8:21],,,,,,,{1},,,
E

MASTER

(200)
{8}
5,4,3/6,4,5,4,3/6,4,4/5,4/5,3/6,
{16}4,5,4,5,
{8}4,8b,,
4,5,3/6,5,4,5,3/6,5,1,2/8,3/7,4/6,
5-2[8:1]*-8[8:1],,5b,,
4,3,2/5,3,4,3,2/5,3,
5,6,4/7,6,5,6,4/7,6,
{16}
4/8,,,3/7,3/7,,2/6,,
1-4[8:1]/5-8[8:1],,,,1/5,,,,
3-8[8:1]/7-4[8:1],,3/7,,3/7,,,,
2b/6b,,,,4,5,4,5,
3/6,,2,1,,1,2,,7-4[8:1],,8,,1/7,,,,
5/6,,7,8,,8,7,,2-5[8:1],,1,,2/8,,,,
3/4,,2,1,,1,2,,7-4[8:1],,8,,1/7,,,,
{4}
1-5[8:1],1^4[8:1]*^6[8:1],1,
{16}5,4,5,4,
3/6,,7,8,,8,7,,2-6[8:1],,8-4[8:1],,2,,8,,
3,,2,1,,1,2,,7-3[8:1],,1-5[8:1],,7,,1,,
6,,7,8,,8,7,,2-6[8:1],,8-4[8:1],,2,,8,,
{8}
1-3[8:1],5-7[8:1],1-5[8:1],5w1[8:1],1,,,,
7,7,2,6,6,2,5,5,2,4,4,2,3-7[8:1],3,,,
2,2,7,3,3,7,4,4,7,5,5,7,6-2[8:1],,8b,,
5<1[4:1],,1>5[4:1],,5w1[8:1],,,,
{16}
3/8,,2-5[16:1],1,,1,2,,8-4[16:1],1,,1,8,,,,
1/6,,7-4[16:1],8,,8,7,,1-5[16:1],8,,8,1,,,,
3/8,,2-5[16:1],1,,1,2,,8-4[16:1],1,,1,8,,,,
1w5[8:1],,,,1,,,,8w4[8:1],,,,8,,,,
1/6,,7-4[16:1],8,,8,7,,1-5[16:1],8,,8,1,,,,
1^4[8:1]/5^8[8:1],,,,1/5,,,,
1/5,,4/8,,3/7,,2/6,,1/5,,,2/6,2/6,,3/7,,
{8}4-1[8:1]/8-5[8:1],,4/8,,
2-5[8:1]/6-1[8:1],2/6,2/6,,
3b/7b,,,,
4,3,2/5,3,4,3,2/5,3,1/8,
{16}1/8,2/7,{8}3/6,2/7,
2/7-4[8:1],,1b,,
5,6,4/7,6,5,6,4/7,6,
{16}7,7,,2,2,,1/8,,3/6,,2,1,8,7,6,5,
{8}
4,5,3/6,5,4,5,3/6,5,
3h[8:1]/6h[8:1],,3h[8:1]/6h[8:1],,
4h[8:1]/5h[8:1],,4h[8:1]/5h[8:1],,
3/8,2,3/8,2,1/6,7,1/6,7,3/6,
{16}4,5,4,,7,8,,1/6,,2,1,,3/8,,
{4}
2b/7b^4[2:1],,,,2^5[2:1],,,,
5,5,4,4,3^6[8:3],,,,
{16}
3h[1:1],,,,,,,,4,,,5,,,6,,
6h[1:1],,,,,,,,5,,,4,,,3,,
{8}
3h[4:1],,4,,6h[4:1],,5,,4/5,,4,5,3-8[8:1]/6-1[8:1],,
{4}3b/6b,,,,,
{16}
4,5,4,5,3,6,3,6,2,7,2,7,1,8,1,8,
3,4,3,4,2,5,2,5,1,6,1,6,8,7,8,7,
5,6,5,6,4,7,4,7,3,8,3,8,2,1,2,1,
3,4,5,6,7,8,1,2,6,5,4,3,2,1,8,7,
1,5,2,6,3,7,4,8,5,1,4,8,3,7,2,6,
1,5,2,6,3,7,4,8,3,7,2,6,1,5,8,4,
1,5,2,6,3,7,4,8,5,1,4,8,3,7,2,6,
1,2,3,4,5,6,7,8,5,4,3,2,1,8,7,6,
1/5,,3,4,3,,4/8,,6,5,6,,5,4,3,2,
1/5,,6,5,6,,4/8,,3,4,3,,4,5,6,7,
4/8,,2,1,2,,1/5,,7,8,7,,2,1,2,,
5/1,2,3,4,5,6,7,8,1/5,4,3,2,1,8,7,6,
1/5,,3,4,3,,4/8,,6,5,6,,5,4,3,2,
1/5,,6,5,6,,4/8,,3,4,3,,4,5,6,7,
4/8,,2,1,2,,1/5,,7,8,7,,1/8,,2/7,,,,
2/4,,,,5/7,,1/8,,2/7,,3/6,,4/5,,
{4}3h[4:3]/6,6,5,5,
4-1[8:1]*-2[8:1],4-6[8:1]*-7[8:1],4,1b,
{16}3/6,,4,4,{8}4,4/5,3/6,3h[4:1]/6h[4:1],,,
5^8[8:1],,5^2[8:1],,5,8b,8b,,
{4}
2-7[4:1],7-4[4:1],4-1[4:1],1-5[4:1],5-2[4:1],
2-7[4:1],7-4[4:1],4-1[4:1],1-5[4:1],5-2[4:1],
2-7[4:1],7-4[4:1],4-1[4:1],1-5[4:1],5-2[8:1],
2,1s5[8:1]/8z4[8:1],,
{16}3,6,3,6,4h[8:1]/5h[8:1],,,,
3/6,,5,4,5,,2,1,,3/8,,7,8,,1/6,,
{4}2b^5[2:1]/7b,,,,7^4[2:1],,,,
4,4,5,5,6^3[8:3],,,1b,{16}
6h[1:1],,,,,,,,5,,,4,,,3,,
3h[1:1],,,,,,,,4,,,5,,,6,,
{8}6h[4:1],,5,,3h[4:1],,4,,3/6,,
4/5,3/6,4-8[8:1]/5-1[8:1],,4/5,,2b/7b,,
{16}1,8,1,8,2,7,2,7,3,6,3,6,{4}
4-2[8:1]/5-2[8:1],
4-7[8:1]/5-7[8:1],
4-8[8:1]/5-1[8:1],4/5,
{32}1,2,3,4,5,6,7,8,1,2,3,4,5,6,7,8,
{4}1w5[8:1],1b,{16}
3/8,,2,1,2-5[8:1],1,2,,2/8-4[8:1],,7,,1/8,,2,,
1/6,,7,8,7-4[8:1],8,7,,7/1-5[8:1],,2,,1/8,,7,,
3/8,,2,1,2-5[8:1],1,2,,2/8-4[8:1],,7,,1/8,,2,,1/8,,
{32}
1,2,3,4,5,,,,
8,7,6,5,4,,,,
1,2,3,4,5,,,,,,,,
{16}
1/6,,7,8,7-4[8:1],8,7,,7/1-5[8:1],,2,,1/8,,7,,
3/8,,2,1,2-5[8:1],1,2,,2/8-4[8:1],,7,,1/8,,2,,
1/6,,7,8,7-4[8:1],8,7,,7/1-5[8:1],,2,,1/8,,7,,
4,5,4,,3/6,,7,8,,1/6,,2,1,,3/8,,
2/6,,7,8,6^3[8:1],8,7,,6/1-5[8:1],,2,,1/8,,6,,
3/7,,2,1,3^6[8:1],1,2,,3/8-4[8:1],,7,,1/8,,3,,
2/6,,7,8,6^3[8:1],8,7,,6/1-5[8:1],,2,,1/8,,6,,2/7,,
{32}
1h[8:1]/8,7,6,5,4,,,,
8h[8:1]/1,2,3,4,5,,,,
1h[8:1]/8,7,6,5,4,,,,,,,,
{16}
3/7,,2,1,3^6[8:1],1,2,,3/8-4[8:1],,7,,1/8,,3,,
2/6,,7,8,6^3[8:1],8,7,,6/1-5[8:1],,2,,1/8,,6,,
3/7,,2,1,3^6[8:1],1,2,,3/8-4[8:1],,7,,1/8,,3,,
5,4,5,,3/6,,2,1,,3/8,,7,8,,1/6,,
{4}2b^5[2:1]/7b,,,,7^4[2:1],,,,
2^5[2:1],,,,6,5,4,3,
5^8[2:1],,,,4^1[2:1],,,,
{16}
1,8,1,8,1,8,1,8,
2,7,2,7,2,7,2,7,
{32}
1,2,3,4,5,,,,8,7,6,5,4,,,,
1,2,3,4,5,6,7,8,
1,2,3,4,5,6,7,8,
{1}
1b>1[4:11]*<1[4:11]/5b,
,
,
,
,
E

Re:MASTER


  • 譜面に問題あるため認識しません -- 名無しさん (2018-05-08 15:59:55)
  • ちゃんと確認しました? -- エラー多すぎ (2018-05-10 21:25:27)
  • 気になったので確認してみましたが、こちらではエラー吐きませんでした。ただ346、347ノーツ目が間違っていたのでこちらで修正しました。 -- 譜面を写した者ではありません (2018-05-10 22:52:32)
  • 修正ありがとうございます。自分で書いてるうちに気づけないこともあるのですごく助かります。エラーの件ですが、自分で作ったものを削除してここから写してもエラーは吐きませんでした。 -- Sea (2018-05-11 00:45:52)
  • DXのページを作って、STのEXP、DXのEXPとMASを追加しました。 -- 三日月-MIKAZUKI- (2020-05-21 11:33:31)
  • ただ、DXのMASTER,謎のエラー出るので、誰か直せる人がいたらお願いしたいです。 -- 三日月-MIKAZUKI- (2020-05-21 11:34:13)
  • {4}2x-5[8:1]/4x,7>3,4h[4:1],,の所の7>3のスライドの長さが定義されてなかったので修正しました -- 名無しさん (2020-06-05 15:16:28)
  • MASTER譜面のSLIDEの速度の修正を行いました。 -- けもがみ (2026-04-30 12:26:54)
名前:
コメント:

タグ:

+ タグ編集
  • タグ:
最終更新:2026年10月04日 08:05