BASIC
ADVANCED
EXPERT
MASTER
(188)
{16}4,5,4,5,{4}36,47,36,25,3h[2:1]/6h[2:1],,{16},,4,5,3b/6b,,,,
2,4,3,4,{8}2h[8:1],6,2h[8:1],4,2h[8:1],7,2h[8:1],5,2,8,2,28,37,46,
{16}7,5,6,5,{8}7h[8:1],3,7h[8:1],5,7h[8:1],2,7h[8:1],4,7,2h[4:1],,1x,1x,,
{16}7,5,6,5,{8}7h[8:1],3,7h[8:1],5,7h[8:1],2,7h[8:1],4,7,1,7,17,26,35,
{16}2,4,3,4,{8}2h[8:1],6,2h[8:1],4,2h[8:1],8,17,2/6<4[8:3],,Cf,,1x,1x,,
17,,28,,45,36,,1-4[8:1]/8-5[8:1],,1x/8x,,2b/7b,,,,,
36,3/6h[8:5],,,5,,5,,4h[4:1]/7h[4:1],,,2h[8:3]/5h[8:3],,,,,
{4}17,5/6^1[4:1],1^6[4:1],3,{8}3,2,1s5[4:1]/7h[2:1],,,,,,
36,3h[8:5]/6,,,4,,4,,2h[4:1]/5h[4:1],,,4h[8:3]/7h[8:3],,,,,
{1}1s5[8:3]/8h[4:3],{4}45,,8b,1b,
{8}24,3,45,,57,6,45,,24,3,45,,{16}7x,5x,6x,4x,5x,,,,
{4}26,8p2[4:1],2q8[4:1],,{8}1,1,1s5[4:1]/8h[2:1],,,,,,
{8}7,6,45,,24,3,45,,57,6,45,,24,1,28,37,
{4}46,1q7[4:1],7p1[4:1],,{8}8,8,1s5[4:1]/8h[2:1],,,,,,
{6}E8,E1,E2,E6,E5,E4,E2/E8,E3/E7,E4/E6,Ch[3:1],,,
E8,E7,E6,E2,E3,E4,B2/B7,B3/B6,E4/E6,Ch[3:1],,,
E2,E1,E8,E4,E5,E6,B1/E1,B7/E7,B3/E3,{4}Chf[4:1],1b,
1h[8:1]/8h[8:1],2h[8:1]/7h[8:1],{16}3,4,3,4,{8}3,25,,8,6,1,3,5,7,4,
2>6[4:1],,5,7<3[4:1],,2,1,,,18,18,18,2b/7b,,,,
2-6[8:1]/8,,5,,7^2[8:1],3,4,5s1[4:1],,8x,8x,,7-3[8:1],1-5[8:1],7,1,
,,26,,5/7h[4:1],,1,2v4[8:1]*-8[8:1]/8,,2x,,7-1[8:1]*v5[8:1],,7x,,8,
1/7-3[8:1],,4,,2^7[8:1],6,5,4z8[4:1],,1x,1x,,2-6[8:1],8-4[8:1],2,8,
,,37,,24,,18,27,,B3/E3,B5/E5,B7/E7,Cf,,,18,
,1,8^5[8:1],1p4[8:1],,,,{4}6pp8[8:1],4^1[8:1],6-2[8:1],8x>6[8:3],Cf,
{8},1,,8x,8x,,2/6V47[8:1],,1,1-5[8:1],,8b,,,,
7-4[8:1],1,,1,2-5[8:1],8,,8,7-3[8:1],3-7[8:1],,,,1x,1x,,
2/8h[8:5],,2,,2,2^5[8:1],,28,,8,8w4[8:1],,8,,,26,
,8,1^4[8:1],8q5[8:1],,,,{4}3qq1[8:1],5^8[8:1],3-7[8:1],1x<3[8:3],Cf,
{8},8,,1x,1x,,3V15[8:3]/6,,5,5^2[8:1]*^8[8:1],,,,,,
17,1h[4:1]/7h[4:1],,,38,3h[8:1]/8h[8:1],,26,,48,3-8[8:1]/7-4[8:1],,37,,1x/5x,,
28,2h[4:1]/8h[4:1],,,16,1h[8:1]/6h[8:1],,37,,15,2-5[8:1]/6-1[8:1],,26,,3b/7b,,
{16}2,4,3,4,{8}2h[8:1],6,2h[8:1],4,2h[8:1],7,2h[8:1],5,2,8,2,28,37,46,
{16}7,5,6,5,{8}7h[8:1],3,7h[8:1],5,7h[8:1],{2}2v4[8:1]*-8[8:1],2-4[8:1]*v8[8:1],{8}2,
{16}2,4,3,4,{8}2h[8:1],6,2h[8:1],4,2h[8:1],7,2h[8:1],5,2,8,2,28,37,46,
{16}7,5,6,5,{8}7h[8:1],3,7h[8:1],5,7h[8:1],2,18,18,18,27,,,,,
{4}4/5<2[4:5],4,4,4,4,4,4,4,4>7[4:5]/5,5,5,5,5,5,5,5,
4/5^8[2:1],4,4,4,4/8^5[2:1],4,4,4,3x/6x,,{8}1h[4:1]/8h[4:1],,,27,,B2/E3,B4/E4,,18,18,18,2b/7b,
,8,4^1[8:1],8q5[8:1],,,,{4}1pp3[8:1],5^8[8:1],2-6[8:1],1x<3[8:3],Cf,
{8},8,,1x,1x,,3V52[8:1]/7,,8,8-4[8:1],,1b,,,,
2-5[8:1],8,,8,7-4[8:1],1,,1,2-6[8:1],6-2[8:1],,,,8x,8x,,
3/8h[8:5],,3,,3,3^6[8:1],,38,,8,8w4[8:1],,8,,,2/6h[4:1],
,1,5^8[8:1],1p2[8:1],,,,{4}1v6[8:1]/8^6[8:1],1^3[8:1]/8v3[8:1],1-4[8:1]/8-5[8:1],1pp4[4:3]/8qq5[4:3],1b/8b,
,,,{8}2/6V84[8:3],,3,4pp4[4:1]/4qq4[4:1],,,,,,
12,1h[4:1]/2h[4:1],,,68,6h[8:1]/8h[8:1],,37,,15,2^5[8:1]/6^1[8:1],,26,,4x/8x,,
78,7h[4:1]/8h[4:1],,,13,1h[8:1]/3h[8:1],,26,,48,3^8[8:1]/7^4[8:1],,37,,1x/5x,,
57,5h[4:1]/7h[4:1],,,16,1h[8:1]/6h[8:1],,37,,15,2^5[8:1]/6^1[8:1],,26,,4x/8x,,
24,2h[4:1]/4h[4:1],,,38,3h[8:1]/8h[8:1],,26,,48,3^8[8:1]/7^4[8:1],,37,,15,
26,,48,2-5[8:1]/6-1[8:1],,26,,48,37,,15,3-6[8:1]/7-2[8:1],,37,,4b/8b,,
{16}2,4,3,4,{8}2h[8:1],6,2h[8:1],4,2h[8:1],7,2h[8:1],5,2,8,2,28,37,46,
{16}7,5,6,5,{8}7h[8:1],3,7h[8:1],5,7h[8:1],{2}2v4[8:1]*-8[8:1],7v1[8:1]*-5[8:1],{8}7,
{16}7,5,6,5,{8}7h[8:1],3,7h[8:1],5,7h[8:1],2,7h[8:1],4,7,1,7,17,26,35,
{16}2,4,3,4,{8}2h[8:1],6,2h[8:1],4,2h[8:1],1,28,3>5[8:3]/7,,Cf,,,8x,8x,
2-5[8:1]/6-1[8:1],,26,,48,{4}3-8[8:1]/7-4[8:1],37,1-4[8:1]/5-8[8:1],
{1}1b/5b,,,,
E
Re:MASTER
(188)
{16},,,,,,,,,,,,4,5,4,5,
{4}4x>8[4:1],8<4[4:1],4,8,
{16}2h[2:1]/7h[2:1],,,,,,,,,,1,8,2b/7b,,,,
{8}25,3,47,6-8[8:1],,4-2[8:1],,5-7[8:1],,3-1[8:1],,5<8[8:1],,1x,2,3,
{8}74,6,52,3-1[8:1],,5-7[8:1],,4-2[8:1],,6p4[8:3],,1h[8:3],,,,,
{8}25,3,47,6-1[8:1],,2-5[8:1],,7-4[8:1],,3-8[8:1],,5<8[8:1],,1x,2,3,
{8}74,6,52,3-8[8:1],,7-4[8:1],,2-5[8:1],,6pp4[8:3],,2h[8:3],,,,,
{8}17,,45,,28,28,,1-5[8:1]/8-4[8:1],,18,,2b/7b,,,,,
{8}35,5/3h[8:5],,,4,,4,,
{8}4q6[2:1],,,3,,,,,
{8}64,4/6h[8:5],,,5,,5,,
{8}5s1[2:1],,,6,,,,,
{8}24,4/2h[8:5],,,3,,3,,
{8}4q6[2:1],,,2,,,,,
{24}17,,,1h[8:3]/7h[8:3],,,,,,,,,,,,17,26,35,4b,,,,,,
{16}45,,,,3,,3hx[8:5],,,,2x,1x,8x,7x,6x,5x,
{16}4x,,,,2,4,2,4,3,5,4,6,5b,,,,
{16}3,4,3,4,2,5,2,5,1,2,3,4,1,2,3,4,
{16}15,,,,7,5,7,5,6,4,5,3,4b,,,,
{16}6,5,6,5,7,4,7,4,8,7,6,5,8,7,6,5,
{16}84,,,,7,5,6,4,5,3,4,2,3b,,,,
{16}1,2,3,4,5,6,7,8,1,2,3,4,1,2,3,4,
{16}15,,,,2,5,3,6,4,7,5,,4x/8x,,,,
{16}7,6,5,4,3,2,1,8,7hb[4:1]/3hb[4:1],,,,,,,,
{6}4>1[8:1],5,6,7<4[8:1],8,1,
{6}2<7[8:1],3,4,5bx/6bx,,,
{6}1>4[8:1],8,7,6<1[8:1],5,4,
{6}3<6[8:1],2,1,8b/7b,,,
{6}5-8[8:1],4,3,2-5[8:1],1,8,
{12}7-2[8:1],,6,,5,,4-8b[8:1],,,4b,,,
{8}17,,24,,57,6,24,3h[1:1],
{8},4,4,4,2,2,2,1,
{8}1<6[8:1],,1,5>2[8:1],,5,8h[8:3],,
{8},1,24,57,1b/8b,,,,
{8}5/3-8[8:1],,3/7-4[8:1],,7/1-5[8:1],2,18,7bV53[8:1],
{16},,2,,2,,,,1,8,7,6,15,8,7,6,
{8}15,,34,2,56,7,28,28,
{8},A7/E8/B8/B1/E2,,A2/E3/B3/B4,,A4/E5f/B5/B6,,,
{8}1/7-4[8:1],,7/3-8[8:1],,3/5-1[8:1],6,54,2bV46[16:3],
{16},,7,,7,,,,8,1,2,3,84,1,2,3,
{8}84,,56,7,34,2,18,18,
{16},,1b/7b,,2b/6b,,3b/5b,,4bx,4x,4x,,35,,35,,
{32},,,,46,,,,46,,,,,,,,28,,,,28,,,,,,,,1h[32:3]/7x,6x,5x,,
{96},,,,,,,,,,,,8h[32:3]/2x,,,3x,,,4x,,,,,,,,,,,,,,,,,,1h[32:3]/6x,,,5x,,,4x,,,,,,,,,,,,,,,,,,8h[32:3]/3x,,,4x,,,5x,,,,,,,,,,,,,,,,,,1x/7x,,,,2x/6x,,,,5x/3xqq5[24:10],,,,
{8}4x,,5,,7,,8,8p4[8:1],
{8},28,2V46[8:1],,28,7,7,,
{8}7<4[8:1],8,7,1,2>5[8:1],1,2,7,
{8}7<5p1[8:3],8,7,8h[4:1],,,,18,
{8}18,,2,2,2,13,,4b/5bh[8:5],
{16},,A6,A7,A8,A1,A2,A3,A4,,,,5,,46,,
{32},,,,57,,,,57,,,,,,,,24,,,,24,,,,,,,,8h[32:3]/2x,3x,4x,,
{96},,,,,,,,,,,,1h[32:3]/7x,,,6x,,,5x,,,,,,,,,,,,,,,,,,8h[32:3]/3x,,,4x,,,5x,,,,,,,,,,,,,,,,,,1h[32:3]/6x,,,5x,,,4x,,,,,,,,,,,,,,,,,,82,,,,73,,,,4/6pp4[24:10],,,,
{8}5,,4,,2,,1,1-5[8:1],
{8},17,7-3-5-8[4:1],,7/2h[4:1],,,,
{8}57,7/5>2[8:1],,,1,1<6[8:1],,4>1[8:1],
{8},7,8-5<7[4:1]*-3>1[4:1],,8,,,,
{8}42,2/4<7[8:1],,,8,8h[8:2],,4,
{32},,,,15,,,,15,,,,,,,,2x,3x,4x,5x,6x,7x,8x,1x,2bx/6bx,,,,,,,,
{8}74,6,52,3-1[8:1],,5-7[8:1],,4-2[8:1],
{8},6-8[8:1],,4>1[8:1],,8x,7,6,
{8}25,3,47,6-8[8:1],,4-2[8:1],,5-7[8:1],
{8},3q5[8:3],,8h[8:3],,,,,
{8}74,6,52,3-8[8:1],,7-4[8:1],,2-5[8:1],
{8},6-1[8:1],,4>1[8:1],,8,7,6,
{8}25,3,47,6-2[8:1],,1h[4:1],,8,
{8}27,36,45,3b/6b,,,,,
{4}E2,E3,E4,E5,
{4}C/E6,E7,E8,E1,
{4}C/E2,E3,E4,E5,
{4}C/E6,A7/E8/B8/B1/E2,A2/E3/B3/B4,A4/E5/B5/B6,
{4}A8/C,A7,A6,A5,
{4}A4/C,A3,A2,A1,
{8}2h[4:1]/B5/B6/E6f,,,,7h[4:1]/B4/B3/E4f,,,A1/A8f/E2/E8,
{8},5,46,,3b,3b,3b,4/2qq4[2:1],
{32},,,,5,,,,6,,,,7x,,,,6,,,,5,,,,,,,,5h[32:3]/3x,2x,1x,,
{96},,,,,,,,,,,,1h[32:3]/7x,,,6x,,,5x,,,,,,,,,,,,,,,,,,6h[32:3]/4x,,,3x,,,2x,,,,,,,,,,,,,,,,,,4h[32:3]/8x,,,7x,,,6x,,,,,,,,,,,,,,,,,,35,,,,6/2v5V38[24:11],,,,17,,,,
{8}8x,,7,,6,,7,7p3[8:1],
{8},17,1V35[8:1],,16,7,8,,
{8}7-4<6[8:1],8,7,1,2-5>3[8:1],1,2,8,
{8}7-3-5-1[8:3],8,7,8h[4:1],,,,18,
{8}18,,6,6,6,57,,8x/4bh[8:5],
{32},,,,A5,D6,A6,D7,A7,D8,A8,D1,A1,D2,A2,D3,A3f,,,,,,,,5,,,,46,,,,
{32},,,,35,,,,35,,,,,,,,26,,,,26,,,,,,,,1bx-5[8:1]/5bx,26,37,,
{96},,,,,,,,,,,,1,,,,,,,,,,,,,,,,,,,,,,,,8bx-4[8:1]/4bx,,,37,,,26,,,,,,,,,,,,,,,,,,8,,,,,,,,,,,,,,,,,,,,,,,,2b/6b,,,,37,,,,4V27[24:10]/8V63[24:10],,,,
{8}15,,,,,,,15,
{8},48,8/4pp4b[4:1]*qq4b[4:1],,,,,,
{8}57,7/5>2[8:1],,,1,1<6[8:1],,4>1[8:1],
{8},7,8q5[4:1]*p3[4:1],,8,,,,
{8}42,2/4<7[8:1],,,8,8>3[8:1],,5<8[8:1],
{8},2,1-4-2[4:1]*-6-8[4:1],,1,,,,
{8}57,7/5>2[8:1],,,1,1<6[8:1],,4>1[8:1],
{8},7,8-2-5[4:1]*-6-3[4:1],,8,,,,
{8}42,2/4<7[8:1],,,8,8>3[8:1],,5<8[8:1],
{8},2,1v4[8:1]*v6[8:1],,A1f,,,5>2[8:1],
{8},7,8v5[8:1]*v3[8:1],,A8f,,,26,
{32},,,,37,,,,15,,,,,,,,2,3,4,5,6,7,8,1,2b/6b,,,,,,,,
{8}38,7,16,2-5[8:1],,6-2[8:1],,1-5[8:1],,7-4[8:1],,3>8[8:1],,5,6,7,
{8}28,3,48,7-3[8:1],,2-6[8:1],,8-4[8:1],,1-3v5<8b[8:3],,,,,,,
{8}61,2,83,7-4[8:1],,3-7[8:1],,8-4[8:1],,2-5[8:1],,6<1[8:1],,4,3,2,
{8}71,6,51,2-6[8:1],,7-3[8:1],,1-5[8:1],,,,7bh[4:1]/3bh[8:3],,,,,
{8},24,,57,,26,2-5[8:1]/6-1[8:1],,
{32}2x/6x,,,,,,,,3b-8b[8:1]/7b-4b[8:1],,,,,,,,3b/7b,E3/C/E7,,,,,,,,,,,,,,,
{1},,,,E
最終更新:2026年04月11日 18:55